<?xml version="1.0" standalone="no"?>
<!DOCTYPE svg PUBLIC "-//W3C//DTD SVG 1.1//EN" "http://www.w3.org/Graphics/SVG/1.1/DTD/svg11.dtd" >
<svg xmlns="http://www.w3.org/2000/svg" xmlns:xlink="http://www.w3.org/1999/xlink" version="1.1">
<metadata>
Created by FontForge 20201107 at Tue Mar 11 15:35:57 2025
 By 
Digitized data copyright (c) 2010 Google Corporation.
 Ascender Corporation. Copyright (c) 2012 Red Hat, Inc. Copyright (c) 2016 Stefan Peev, Context Ltd.
</metadata>
<defs>
<font id="LibraSerifModern-Regular" horiz-adv-x="0" >
  <font-face 
    font-family="Libra Serif Modern"
    font-weight="400"
    font-stretch="normal"
    units-per-em="2048"
    panose-1="2 0 5 3 8 0 0 2 0 4"
    ascent="1638"
    descent="-410"
    x-height="940"
    cap-height="1341"
    bbox="-1114 -621 2619 2009"
    underline-thickness="98"
    underline-position="-370"
    unicode-range="U+000D-FFFC"
  />
<missing-glyph horiz-adv-x="1200" 
d="M102 0v1085h996v-1085h-996zM141 152q132 290 414 575q-79 36 -158 51q-146 -250 -256 -626zM713 641q-165 -84 -296.5 -204.5t-260.5 -289.5q363 255 696 375q-74 77 -139 119zM199 147h860q-17 116 -82 207q-204 -27 -415 -83.5t-363 -123.5z" />
    <glyph glyph-name=".notdef" horiz-adv-x="1200" 
d="M102 0v1085h996v-1085h-996zM141 152q132 290 414 575q-79 36 -158 51q-146 -250 -256 -626zM713 641q-165 -84 -296.5 -204.5t-260.5 -289.5q363 255 696 375q-74 77 -139 119zM199 147h860q-17 116 -82 207q-204 -27 -415 -83.5t-363 -123.5z" />
    <glyph glyph-name=".null" 
 />
    <glyph glyph-name=".null" 
 />
    <glyph glyph-name="nonmarkingreturn" unicode="&#xd;" horiz-adv-x="512" 
 />
    <glyph glyph-name="space" unicode=" " horiz-adv-x="512" 
 />
    <glyph glyph-name="exclam" unicode="!" horiz-adv-x="681" 
d="M340 213q51 0 86 -35t35 -86q0 -50 -35 -85.5t-86 -35.5t-86 35.5t-35 85.5q0 51 35 86t86 35zM231 1341h218l-62 -952h-94z" />
    <glyph glyph-name="quotedbl" unicode="&#x22;" horiz-adv-x="835" 
d="M512 1341h197l-62 -481h-74zM127 1341h197l-62 -481h-74z" />
    <glyph glyph-name="numbersign" unicode="#" horiz-adv-x="1024" 
d="M987 524v-102h-260l-78 -422h-104l78 422h-310l-77 -422h-105l78 422h-172v102h192l58 307h-250v103h268l76 407h104l-75 -407h309l76 407h104l-76 -407h164v-103h-182l-57 -307h239zM334 524h309l57 307h-309z" />
    <glyph glyph-name="dollar" unicode="$" horiz-adv-x="1024" 
d="M961 387l4 -2q0 -177 -110.5 -283t-287.5 -120v-140h-82v135q-92 2 -213 23t-180 47v320h66l35 -191q33 -43 122.5 -78.5t169.5 -38.5v566q-11 4 -43.5 15t-40 14t-31.5 11.5t-31.5 12.5t-25 12t-28 14.5t-25 16t-29.5 20.5q-122 91 -122 271q0 101 52 176t134.5 114.5
t187.5 47.5v129h82v-127q157 -6 307 -43v-279h-65l-29 164q-30 29 -91.5 50t-121.5 26v-477l94 -33q164 -61 234 -152q68 -89 68 -221zM567 63h2q109 15 168.5 81.5t59.5 183.5q0 94 -49 155q-50 62 -181 111v-531zM487 1266q-93 -11 -149.5 -62t-56.5 -139q0 -110 75 -172
q37 -30 131 -70v443z" />
    <glyph glyph-name="percent" unicode="%" horiz-adv-x="1705" 
d="M440 -20h-110l948 1382h111zM397 1362q164 0 244 -95t80 -272q0 -372 -330 -372q-321 0 -321 372q0 367 327 367zM391 696h-2q52 0 88 22.5t54 66t25 93t7 117.5q0 67 -7.5 116t-25.5 91t-53.5 64t-87.5 22q-42 0 -72 -15t-48 -39.5t-28.5 -63.5t-14 -79.5t-3.5 -95.5
q0 -163 41 -231t127 -68zM1311 713q164 0 243.5 -94.5t79.5 -272.5q0 -373 -329 -373q-164 0 -243 97t-79 276q0 178 80.5 272.5t247.5 94.5zM1305 47h-2q52 0 88 22.5t54 66t25 93t7 117.5q0 54 -4 95t-15.5 79.5t-30.5 63.5t-50.5 40t-73.5 15t-72 -15t-48 -39.5
t-28.5 -63.5t-14 -79.5t-3.5 -95.5q0 -163 41 -231t127 -68z" />
    <glyph glyph-name="ampersand" unicode="&#x26;" horiz-adv-x="1591" 
d="M631 1362h6q167 0 262.5 -68t95.5 -211q0 -144 -129 -235q-57 -40 -204 -100l421 -383q97 205 103 362l-142 27v53h457v-53l-139 -27q-76 -264 -197 -440l228 -209l166 -25v-53h-345l-172 156q-99 -88 -207 -132t-257 -44q-498 0 -498 376q0 183 133 287q55 44 195 100
q-152 146 -152 326q0 150 100 221.5t275 71.5zM281 367q0 -149 85.5 -225t241.5 -76q218 0 371 153l-500 457q-98 -42 -148 -115.5t-50 -193.5zM637 1282v-2q-101 0 -149 -46.5t-48 -146.5q0 -161 154 -276q59 23 94 42t68.5 50.5t48 77t14.5 109.5q0 192 -182 192z" />
    <glyph glyph-name="quotesingle" unicode="'" horiz-adv-x="368" 
d="M86 1341h197l-62 -481h-74z" />
    <glyph glyph-name="parenleft" unicode="(" horiz-adv-x="681" 
d="M616 -436v-2q-134 70 -228 150t-163 190t-102 255.5t-33 334.5q0 190 33 334.5t102 253.5t162.5 188.5t228.5 150.5v-84q-230 -129 -301 -434q-32 -136 -32 -407q0 -339 72.5 -537.5t260.5 -308.5v-84z" />
    <glyph glyph-name="parenright" unicode=")" horiz-adv-x="681" 
d="M66 1421q135 -71 228.5 -150.5t162.5 -188.5t102 -253.5t33 -334.5t-33 -335t-102 -254.5t-162.5 -189.5t-228.5 -151v84q187 110 260 309t73 537q0 273 -32 409q-71 305 -301 434v84z" />
    <glyph glyph-name="asterisk" unicode="*" horiz-adv-x="1024" 
d="M100 1065l64 143l315 -194l-43 327h156l-47 -327l317 190l64 -141l-332 -98l332 -97l-64 -141l-317 188l47 -325h-156l43 328l-315 -195l-64 143l328 99z" />
    <glyph glyph-name="plus" unicode="+" horiz-adv-x="1153" 
d="M629 629v-426h-103v426h-424v102h424v426h103v-426h426v-102h-426z" />
    <glyph glyph-name="comma" unicode="," horiz-adv-x="512" 
d="M240 211v2q64 0 103.5 -47t39.5 -115q0 -145 -83 -233.5t-222 -130.5v77q176 56 176 168q0 18 -11 32.5t-22.5 20.5t-34.5 17q-67 34 -67 98q0 53 33.5 82t87.5 29z" />
    <glyph glyph-name="hyphen" unicode="-" horiz-adv-x="681" 
d="M76 406v153h532v-153h-532z" />
    <glyph glyph-name="period" unicode="." horiz-adv-x="512" 
d="M256 213q51 0 86 -35t35 -86q0 -50 -35 -85.5t-86 -35.5t-86 35.5t-35 85.5q0 51 35 86t86 35z" />
    <glyph glyph-name="slash" unicode="/" horiz-adv-x="567" 
d="M100 -20h-100l471 1370h98z" />
    <glyph glyph-name="zero" unicode="0" horiz-adv-x="1024" 
d="M946 676h-2q0 -696 -440 -696q-212 0 -320 178q-106 175 -106 518q0 334 108 510t326 176q214 0 324 -174t110 -512zM760 676v2q0 323 -62 465q-62 141 -194 141q-128 0 -187 -135q-57 -132 -57 -473q0 -340 59 -479q59 -138 185 -138q132 0 194 146q62 145 62 471z" />
    <glyph glyph-name="one" unicode="1" horiz-adv-x="1024" 
d="M627 80l274 -27v-53h-721v53l275 27v1094l-271 -97v53l391 222h52v-1272z" />
    <glyph glyph-name="two" unicode="2" horiz-adv-x="1024" 
d="M444 1356q207 0 324 -85.5t117 -264.5q0 -128 -45.5 -222.5t-130.5 -187.5q-53 -58 -250 -231.5t-236 -210.5h690v-154h-821v147l187 168q179 157 262 256q80 94 118.5 193t38.5 242q0 133 -61 199.5t-191 66.5q-115 0 -208 -53l-35 -164h-66v258q179 43 307 43z" />
    <glyph glyph-name="three" unicode="3" horiz-adv-x="1024" 
d="M590 702v3q172 -20 263 -99t91 -239q0 -190 -129.5 -287.5t-345.5 -97.5q-192 0 -360 43l-11 282h66l45 -188q36 -21 110 -37t134 -16q161 0 234 73.5t73 237.5q0 136 -71.5 202t-211.5 74l-143 9v81l143 9q115 6 168 70.5t53 191.5q0 135 -57 196.5t-188 61.5
q-116 0 -213 -53l-35 -164h-66v258q157 43 314 43q430 0 430 -330q0 -141 -77.5 -222t-215.5 -102z" />
    <glyph glyph-name="four" unicode="4" horiz-adv-x="1024" 
d="M811 295v-295h-172v295h-598v133l653 920h117v-910h180v-143h-180zM639 1112h-6l-479 -674h485v674z" />
    <glyph glyph-name="five" unicode="5" horiz-adv-x="1024" 
d="M453 63h-2q163 0 235 78t72 248q0 120 -29 184t-104 97q-70 30 -187 30q-90 0 -178 -24h-96v665h680v-153h-590v-428q108 24 231 24q225 0 342 -92t117 -293q0 -208 -125.5 -313.5t-349.5 -105.5q-192 0 -340 43l-10 282h65l45 -188q39 -22 103 -38t121 -16z" />
    <glyph glyph-name="six" unicode="6" horiz-adv-x="1024" 
d="M600 803h4q179 0 271 -100.5t92 -286.5q0 -207 -105 -321.5t-305 -114.5q-101 0 -180.5 35t-132 96t-87.5 148.5t-50 186.5t-15 216q0 210 61.5 369t178.5 243q113 82 264 82q143 0 289 -35v-231h-66l-35 137q-30 17 -87.5 31t-102.5 14q-144 0 -227 -142
q-84 -144 -93 -413q164 86 326 86zM782 397h2q0 75 -9.5 128.5t-33 96t-66.5 64t-106 21.5q-135 0 -290 -50q0 -304 67 -450q68 -148 207 -148q131 0 180 84.5t49 253.5z" />
    <glyph glyph-name="seven" unicode="7" horiz-adv-x="1024" 
d="M201 1024h-66v317h830v-77l-598 -1264h-129l587 1188h-589z" />
    <glyph glyph-name="eight" unicode="8" horiz-adv-x="1024" 
d="M514 1362v6q183 0 287 -88.5t104 -259.5q0 -112 -53.5 -188t-144.5 -117q110 -42 174.5 -130t64.5 -220q0 -198 -111.5 -290.5t-328.5 -92.5q-428 0 -428 383q0 132 64 218.5t173 127.5q-87 42 -141.5 118.5t-54.5 184.5q0 171 104.5 259.5t290.5 88.5zM506 66
q141 0 200.5 73t59.5 230q0 156 -59.5 229.5t-200.5 73.5q-138 0 -193 -72.5t-55 -230.5q0 -159 55 -231t193 -72zM508 760q118 0 167.5 64t49.5 196q0 131 -51.5 199.5t-165.5 68.5t-161.5 -67t-47.5 -201q0 -133 46.5 -196.5t162.5 -63.5z" />
    <glyph glyph-name="nine" unicode="9" horiz-adv-x="1024" 
d="M446 532h-4q-179 0 -280 108t-101 292q0 202 114 313t319 111q229 0 337 -166q107 -165 107 -518q0 -153 -30 -277t-91.5 -219t-163 -147t-237.5 -52q-162 0 -299 35v232h65l35 -144q88 -39 195 -39q159 0 245 142q88 145 97 413q-153 -87 -308 -84zM246 928h2
q0 -147 58 -223t188 -76q127 0 260 53q0 306 -62 451q-61 143 -196 143q-250 0 -250 -348z" />
    <glyph glyph-name="colon" unicode=":" horiz-adv-x="567" 
d="M283 213q50 0 85 -35t35 -86q0 -50 -34.5 -85.5t-85.5 -35.5t-86 35.5t-35 85.5q0 51 35 86t86 35zM283 961q51 0 85.5 -35.5t34.5 -85.5q0 -51 -34.5 -86t-85.5 -35t-86 35t-35 86q0 50 35 85.5t86 35.5z" />
    <glyph glyph-name="semicolon" unicode=";" horiz-adv-x="567" 
d="M283 961q51 0 85.5 -35.5t34.5 -85.5q0 -51 -34.5 -86t-85.5 -35t-86 35t-35 86q0 50 35 85.5t86 35.5zM268 211v2q65 0 104.5 -46.5t39.5 -115.5q0 -146 -83 -235t-223 -129v77q177 56 177 168q0 26 -18 41.5t-50 28.5q-68 35 -68 98q0 53 33.5 82t87.5 29z" />
    <glyph glyph-name="less" unicode="&#x3c;" horiz-adv-x="1153" 
d="M102 655v50l953 469v-103l-809 -391l809 -391v-103z" />
    <glyph glyph-name="equal" unicode="=" horiz-adv-x="1153" 
d="M1055 526v-102h-953v102h953zM1055 936v-102h-953v102h953z" />
    <glyph glyph-name="greater" unicode="&#x3e;" horiz-adv-x="1153" 
d="M104 186v103l809 391l-809 391v103l953 -469v-50z" />
    <glyph glyph-name="question" unicode="?" horiz-adv-x="907" 
d="M641 1004h2q0 146 -52.5 207t-187.5 61q-114 0 -196 -49l-35 -164h-66v254q154 43 295 43q424 0 424 -340q0 -327 -315 -393l-57 -13l-13 -260h-80l-26 334l143 29q91 18 127.5 90.5t36.5 200.5zM412 213q50 0 85 -35t35 -86q0 -50 -34.5 -85.5t-85.5 -35.5t-86 35.5
t-35 85.5q0 51 35 86t86 35z" />
    <glyph glyph-name="at" unicode="@" horiz-adv-x="1884" 
d="M895 -305l-2 -6q167 0 286 41.5t244 130.5l33 -51q-131 -103 -269 -154t-325 -51q-231 0 -400.5 97t-260.5 263q-95 173 -95 391q0 295 131 522.5t343 352.5q220 129 491 129q214 0 370.5 -66.5t245.5 -205.5t89 -340q0 -104 -29.5 -201.5t-80.5 -175.5t-114 -140.5
t-137 -107.5q-163 -100 -344 -100q-65 0 -65 51q0 57 8 125q-81 -81 -170 -131q-80 -45 -152 -45q-75 0 -113 56t-38 144q0 194 68 345.5t188 238.5q85 61 162 83.5t212 22.5h37q40 0 86 -6l-114 -530q-7 -27 -15 -86.5t-8 -87.5q0 -35 17.5 -48.5t56.5 -13.5q68 0 128 26
t104 71t76 97t56 114q56 145 56 299q0 255 -158.5 393.5t-427.5 138.5q-250 0 -431.5 -120t-281.5 -320q-106 -211 -106 -475q0 -201 80.5 -351.5t220.5 -232.5q148 -86 348 -86zM1137 801l-50 6q-150 0 -231 -51t-127 -170q-51 -128 -51 -283q0 -149 80 -149q68 0 139.5 34
t124.5 80z" />
    <glyph glyph-name="A" unicode="A" horiz-adv-x="1478" 
d="M461 53v-53h-441v53l152 27l457 1272h190l475 -1272l170 -27v-53h-567v53l180 27l-133 387h-528l-135 -387zM676 1208l-230 -651h467z" />
    <glyph glyph-name="B" unicode="B" horiz-adv-x="1363" 
d="M643 743q160 0 237.5 63t77.5 210q0 132 -81.5 183.5t-245.5 51.5h-207v-508h219zM719 84q168 0 254 71.5t86 227.5q0 79 -27.5 132.5t-81.5 83t-123 42t-163 12.5h-240v-563q138 -6 295 -6zM1266 385v-2q0 -84 -25.5 -150t-70.5 -111t-111 -74.5t-144 -42.5t-172 -13
l-428 6h-256v53l172 27v1182l-172 26v53h613q91 0 161.5 -8t134.5 -29.5t105.5 -56t65.5 -90.5t24 -131q0 -127 -76.5 -206.5t-199.5 -104.5q80 -8 147 -31t120 -62t82.5 -99t29.5 -136z" />
    <glyph glyph-name="C" unicode="C" horiz-adv-x="1363" 
d="M293 657q0 -137 28 -245.5t85.5 -188.5t151 -123t218.5 -43q109 0 211 27.5t164 73.5l37 200h65l-6 -315q-212 -63 -473 -63q-324 0 -507 177.5t-183 497.5q0 346 175 523.5t519 177.5q216 0 449 -51l6 -293h-66l-30 174q-66 41 -159 65.5t-192 24.5q-109 0 -192.5 -27.5
t-140.5 -78t-93 -128t-51.5 -171.5t-15.5 -214z" />
    <glyph glyph-name="D" unicode="D" horiz-adv-x="1478" 
d="M709 86h2q131 0 224 39.5t148.5 118t81 185.5t25.5 251q0 279 -151 425t-433 146h-180v-1157q107 -8 283 -8zM1399 678q0 -339 -173 -510.5t-515 -171.5l-478 4h-172v53l172 27v1182l-172 26v53h609q361 0 545 -161.5t184 -501.5z" />
    <glyph glyph-name="E" unicode="E" horiz-adv-x="1249" 
d="M59 53l174 27v1182l-172 26v53h1006v-321h-66l-32 217q-106 14 -326 14h-219v-524h362l31 160h64v-412h-64l-31 162h-362v-547h264q253 0 338 16l57 248h66l-19 -354h-1071v53z" />
    <glyph glyph-name="F" unicode="F" horiz-adv-x="1138" 
d="M424 602l2 -522l223 -27v-53h-575v53l159 27v1182l-172 26v53h1006v-321h-66l-32 217q-106 14 -326 14h-219v-559h395l31 160h61v-412h-61l-31 162h-395z" />
    <glyph glyph-name="G" unicode="G" horiz-adv-x="1478" 
d="M776 57h-2q81 0 176.5 20t141.5 48v381l-172 26v54h495v-54l-131 -26v-436q-268 -90 -510 -90q-326 0 -508 176.5t-182 498.5q0 349 174 525t520 176q237 0 471 -60v-288h-67l-27 166q-68 47 -164.5 74.5t-204.5 27.5q-136 0 -232.5 -42t-153 -124t-82 -193t-25.5 -260
q0 -139 27.5 -247t84.5 -188t150.5 -122.5t220.5 -42.5z" />
    <glyph glyph-name="H" unicode="H" horiz-adv-x="1478" 
d="M59 0v53l172 27v1182l-172 26v53h537v-53l-172 -26v-527h631v527l-172 26v53h536v-53l-172 -26v-1182l172 -27v-53h-536v53l172 27v565h-631v-565l172 -27v-53h-537z" />
    <glyph glyph-name="I" unicode="I" horiz-adv-x="681" 
d="M438 80l172 -27v-53h-536v53l172 27v1182l-172 26v53h536v-53l-172 -26v-1182z" />
    <glyph glyph-name="J" unicode="J" horiz-adv-x="796" 
d="M410 1262l-174 26v53h516v-53l-152 -26v-830q0 -279 -166 -395q-80 -57 -184 -57q-127 0 -207 30v244h66l30 -139q40 -49 131 -49q140 0 140 190v1006z" />
    <glyph glyph-name="K" unicode="K" horiz-adv-x="1478" 
d="M1354 1341v-53l-156 -26l-459 -449l574 -733l145 -27v-53h-328l-526 678l-180 -146v-452l192 -27v-53h-557v53l172 27v1182l-172 26v53h537v-53l-172 -26v-631l643 631l-133 26v53h420z" />
    <glyph glyph-name="L" unicode="L" horiz-adv-x="1249" 
d="M631 1288l-207 -26v-1176h264q216 0 313 20l62 279h65l-18 -385h-1051v53l172 27v1182l-172 26v53h572v-53z" />
    <glyph glyph-name="M" unicode="M" horiz-adv-x="1820" 
d="M862 0h-35l-491 1153v-1073l180 -27v-53h-457v53l172 27v1182l-172 26v53h406l436 -1019l475 1019h385v-53l-172 -26v-1182l172 -27v-53h-544v53l180 27v1073z" />
    <glyph glyph-name="N" unicode="N" horiz-adv-x="1478" 
d="M1155 1262l-180 26v53h457v-53l-172 -26v-1262h-97l-827 1206v-1126l180 -27v-53h-457v53l172 27v1182l-172 26v53h406l690 -993v914z" />
    <glyph glyph-name="O" unicode="O" horiz-adv-x="1478" 
d="M739 1276v-2q-128 0 -216 -40t-138 -121t-71 -187.5t-21 -255.5q0 -323 108 -467t338 -144q102 0 179 28t128 78.5t82.5 127.5t44.5 169t13 210q0 321 -109 463q-108 141 -338 141zM739 -23q-324 0 -489.5 178.5t-165.5 514.5q0 684 655 684q326 0 491 -175t165 -509
q0 -336 -166 -514.5t-490 -178.5z" />
    <glyph glyph-name="P" unicode="P" horiz-adv-x="1138" 
d="M528 616q172 0 251 77.5t79 250.5q0 169 -78 238t-258 69h-98v-635h104zM1057 946q0 -211 -126.5 -315.5t-355.5 -104.5h-151v-446l213 -27v-53h-565v53l159 27v1182l-172 26v53h506q492 0 492 -395z" />
    <glyph glyph-name="Q" unicode="Q" horiz-adv-x="1478" 
d="M739 1276l2 2q-127 0 -215 -40.5t-138 -122t-71.5 -188.5t-21.5 -255q0 -323 108 -467t338 -144q229 0 338 142t109 467q0 324 -111 465t-338 141zM741 -18h2q-325 0 -490 177.5t-165 512.5q0 686 655 686q326 0 491 -175t165 -511q0 -493 -355 -637l50 -62
q86 -108 151 -157q62 -47 121 -47l82 4v-66q-26 -11 -94 -24t-105 -13q-78 0 -129 24t-108 75q-60 57 -187 217q-50 -4 -84 -4z" />
    <glyph glyph-name="R" unicode="R" horiz-adv-x="1363" 
d="M1130 983q0 -139 -76.5 -235.5t-199.5 -131.5l365 -536l145 -27v-53h-322l-376 588h-242v-508l203 -27v-53h-555v53l159 27v1182l-172 26v53h580q118 0 204 -17t152.5 -57t100.5 -111t34 -173zM600 678q175 0 253.5 64.5t78.5 226.5q0 161 -78 221.5t-258 60.5h-172v-573
h176z" />
    <glyph glyph-name="S" unicode="S" horiz-adv-x="1138" 
d="M551 -20v2q-108 0 -219 19.5t-193 51.5v309h66l35 -180q37 -46 129 -82.5t176 -36.5q136 0 216.5 70.5t80.5 198.5q0 30 -6 57t-15.5 48t-26.5 40.5t-31.5 33.5t-39.5 28.5t-43 23.5t-47.5 20.5t-47 17.5t-49.5 16.5t-47 15.5q-63 21 -107 40t-94 51.5t-80 70t-50.5 94.5
t-20.5 127q0 87 35 153.5t97.5 107t143 61t177.5 20.5q164 0 352 -43v-279h-65l-35 164q-103 74 -252 74q-125 0 -205 -51.5t-80 -153.5q0 -65 29.5 -107.5t81.5 -74.5q24 -15 56.5 -30t56.5 -23.5t66.5 -23.5t61.5 -22q64 -23 108.5 -43.5t95 -54.5t80.5 -73t50.5 -98.5
t20.5 -131.5q0 -200 -122.5 -303.5t-338.5 -103.5z" />
    <glyph glyph-name="T" unicode="T" horiz-adv-x="1249" 
d="M315 0v53l213 27v1175h-51q-259 0 -346 -20l-27 -209h-67v315h1180v-315h-68l-27 209q-90 18 -352 18h-49v-1173l213 -27v-53h-619z" />
    <glyph glyph-name="U" unicode="U" horiz-adv-x="1478" 
d="M762 92q190 0 293.5 90.5t103.5 270.5v809l-180 26v53h457v-53l-172 -26v-801q0 -242 -132 -361.5t-384 -119.5q-254 0 -393.5 115.5t-139.5 346.5v820l-172 26v53h537v-53l-172 -26v-805q0 -365 354 -365z" />
    <glyph glyph-name="V" unicode="V" horiz-adv-x="1478" 
d="M1456 1341v-53l-147 -26l-539 -1293h-51l-545 1293l-151 26v53h542v-53l-180 -26l406 -988l405 988l-176 26v53h436z" />
    <glyph glyph-name="W" unicode="W" horiz-adv-x="1931" 
d="M1374 -31h-53l-348 924l-357 -924h-53l-444 1293l-117 26v53h512v-53l-197 -26l320 -945l360 930h45l349 -930l303 945l-209 26v53h444v-53l-117 -26z" />
    <glyph glyph-name="X" unicode="X" horiz-adv-x="1478" 
d="M317 80l166 -27v-53h-438v53l148 27l456 606l-389 576l-151 26v53h553v-53l-170 -26l278 -414l311 414l-166 26v53h439v-53l-148 -26l-377 -502l461 -680l152 -27v-53h-553v53l170 27l-352 520z" />
    <glyph glyph-name="Y" unicode="Y" horiz-adv-x="1478" 
d="M838 528v-448l213 -27v-53h-619v53l213 27v442l-471 740l-151 26v53h567v-53l-180 -26l385 -619l366 619l-170 26v53h436v-53l-147 -26z" />
    <glyph glyph-name="Z" unicode="Z" horiz-adv-x="1249" 
d="M98 94l752 1161h-250q-253 0 -340 -20l-31 -211h-69v317h913v-86l-758 -1171h291q92 0 215.5 10t188.5 23l59 256h70l-27 -373h-1014v94z" />
    <glyph glyph-name="bracketleft" unicode="[" horiz-adv-x="681" 
d="M152 -274v1695h456v-47l-297 -41v-1519l297 -41v-47h-456z" />
    <glyph glyph-name="backslash" unicode="\" horiz-adv-x="567" 
d="M0 1350h98l471 -1370h-100z" />
    <glyph glyph-name="bracketright" unicode="]" horiz-adv-x="681" 
d="M74 -274v47l297 41v1519l-297 41v47h456v-1695h-456z" />
    <glyph glyph-name="asciicircum" unicode="^" horiz-adv-x="960" 
d="M457 1341h49l428 -952h-103l-350 809l-350 -809h-102z" />
    <glyph glyph-name="underscore" unicode="_" horiz-adv-x="1024" 
d="M-16 -264v102h1056v-102h-1056z" />
    <glyph glyph-name="grave" unicode="`" horiz-adv-x="681" 
d="M473 1118l-354 268v37h213l196 -272v-33h-55z" />
    <glyph glyph-name="a" unicode="a" horiz-adv-x="907" 
d="M598 696v-2q0 93 -33.5 141t-111.5 48q-102 0 -185 -47l-35 -117h-55v205q161 34 285 34q150 0 224.5 -60t74.5 -196v-634l117 -25v-45h-258l-19 94q-115 -115 -289 -115q-241 0 -241 281q0 82 26 138.5t79 88t119.5 45t160.5 15.5l141 4v147zM381 88v-2q112 0 217 55
v334l-131 -4q-128 -3 -178.5 -46.5t-50.5 -160.5q0 -176 143 -176z" />
    <glyph glyph-name="b" unicode="b" horiz-adv-x="1024" 
d="M504 66h-2q62 0 109 22.5t75.5 60.5t46.5 94.5t24.5 117t6.5 135.5q0 175 -59.5 269.5t-202.5 94.5q-50 0 -109 -10t-90 -23v-745q88 -16 201 -16zM506 -20v-3q-89 0 -194 20.5t-177 49.5v1303l-137 24v45h303v-336q0 -52 -6 -196q104 78 252 78q202 0 299.5 -122
t97.5 -347q0 -244 -108.5 -380t-329.5 -136z" />
    <glyph glyph-name="c" unicode="c" horiz-adv-x="907" 
d="M258 477h2q0 -202 76.5 -297.5t257.5 -95.5q149 0 252 33v-60q-48 -36 -135.5 -56.5t-178.5 -20.5q-456 0 -456 497q0 231 114.5 359.5t335.5 128.5q131 0 295 -31v-262h-55l-43 166q-83 47 -197 47q-268 0 -268 -408z" />
    <glyph glyph-name="d" unicode="d" horiz-adv-x="1024" 
d="M74 461q0 240 106 372t324 132q97 0 219 -23q-6 35 -6 166v244l-158 24v45h324v-1351l116 -25v-45h-264l-12 70q-116 -90 -264 -90q-385 0 -385 481zM254 461q0 -86 12.5 -152t41.5 -118t81 -79.5t125 -27.5q118 0 203 39v743q-100 17 -203 17q-260 0 -260 -422z" />
    <glyph glyph-name="e" unicode="e" horiz-adv-x="907" 
d="M80 477h2q0 232 96.5 360t300.5 128q361 0 361 -410v-82h-578v-18q0 -184 65.5 -277.5t225.5 -93.5q48 0 125.5 9.5t122.5 19.5v-56q-49 -32 -134 -54.5t-165 -22.5q-228 0 -325 121.5t-97 375.5zM479 885v-2q-215 0 -215 -332h402q0 182 -45 256q-47 78 -142 78z" />
    <glyph glyph-name="f" unicode="f" horiz-adv-x="681" 
d="M225 1010l-2 -2q0 127 30.5 221t102.5 152.5t181 58.5q73 0 141 -19v-204h-49l-45 122q-34 21 -80 21q-64 0 -88 -55q-25 -58 -25 -209v-156h250v-84h-250v-778l203 -33v-45h-508v45l139 33v778h-162v49l162 39v66z" />
    <glyph glyph-name="g" unicode="g" horiz-adv-x="1024" 
d="M502 965h2q36 0 97 -8t87 -17l221 111l35 -43l-139 -144q67 -76 67 -221q0 -165 -99 -246.5t-277 -81.5q-84 0 -154 15l-63 -131q3 -22 45 -34.5t84 -12.5h278q141 0 220 -61.5t79 -186.5q0 -215 -231 -303q-113 -43 -273 -43q-192 0 -295 59q-100 57 -100 166
q0 52 37 104q36 51 133 123q-54 16 -94.5 61.5t-40.5 102.5l158 178q-158 74 -158 291q0 160 102 241t279 81zM483 -362q73 0 134 13t110 40t76.5 73.5t27.5 108.5q0 121 -141 121h-364q-38 -33 -66.5 -87t-28.5 -108q0 -39 12.5 -68t34 -46.5t54.5 -28t68.5 -14.5t82.5 -4z
M297 643q0 -126 45.5 -189t155.5 -63q111 0 155.5 62.5t44.5 189.5t-43.5 186.5t-154.5 59.5q-110 0 -156.5 -60.5t-46.5 -185.5z" />
    <glyph glyph-name="h" unicode="h" horiz-adv-x="1024" 
d="M637 965h2q246 0 246 -277v-618l114 -25v-45h-405v45l125 25v606q0 172 -166 172q-85 0 -227 -29v-749l127 -25v-45h-412v45l119 25v1282l-140 24v45h306v-407q0 -96 -7 -150q66 38 156.5 69.5t161.5 31.5z" />
    <glyph glyph-name="i" unicode="i" horiz-adv-x="567" 
d="M270 1356q44 0 76.5 -32.5t32.5 -76.5q0 -43 -32.5 -75.5t-76.5 -32.5q-43 0 -75.5 32t-32.5 76t32 76.5t76 32.5zM369 70l161 -25v-45h-487v45l160 25v800l-133 25v45h299v-870z" />
    <glyph glyph-name="j" unicode="j" horiz-adv-x="567" 
d="M285 1356q43 0 75.5 -32.5t32.5 -76.5q0 -43 -32 -75.5t-76 -32.5t-76.5 32t-32.5 76t32.5 76.5t76.5 32.5zM383 -39h-4q0 -184 -71.5 -290.5t-225.5 -106.5q-62 0 -145 18v199h47l26 -109q36 -28 86 -28q61 0 90 63q31 67 31 203v960l-141 25v45h307v-979z" />
    <glyph glyph-name="k" unicode="k" horiz-adv-x="1024" 
d="M344 453l385 415l-98 27v45h332v-45l-117 -23l-268 -274l344 -530l102 -23v-45h-385v45l86 25l-258 405l-123 -135v-270l100 -25v-45h-385v45l119 25v1282l-139 24v45h305v-968z" />
    <glyph glyph-name="l" unicode="l" horiz-adv-x="567" 
d="M367 70l161 -25v-45h-487v45l160 25v1282l-160 24v45h326v-1351z" />
    <glyph glyph-name="m" unicode="m" horiz-adv-x="1591" 
d="M717 670l6 -2q0 172 -170 172q-79 0 -221 -29v-743l141 -25v-45h-426v45l119 25v800l-119 25v45h275l8 -76q175 101 305 101q75 0 131 -28.5t82 -80.5q74 40 175.5 74.5t176.5 34.5q240 0 240 -277v-618l121 -25v-45h-426v45l139 25v600q0 172 -160 172q-30 0 -68.5 -4.5
t-56 -7t-69.5 -13t-54 -10.5q17 -59 17 -117v-618l141 -25v-45h-446v45l139 25v600z" />
    <glyph glyph-name="n" unicode="n" horiz-adv-x="1024" 
d="M713 670q0 178 -166 178q-79 0 -221 -29v-749l127 -25v-45h-406v45l113 25v800l-113 25v45h268l9 -76q183 101 309 101q246 0 246 -277v-618l114 -25v-45h-405v45l125 25v600z" />
    <glyph glyph-name="o" unicode="o" horiz-adv-x="1024" 
d="M514 965q219 0 325.5 -127t106.5 -363q0 -495 -440 -495q-217 0 -322.5 129.5t-105.5 365.5t107.5 363t328.5 127zM766 475q0 76 -6.5 134.5t-24 112t-46.5 88t-75 55t-108 20.5t-107 -20t-72 -54t-42.5 -88t-21 -111.5t-5.5 -136.5t5.5 -137.5t21 -113.5t42.5 -89.5
t72 -55t107 -20.5t108 20.5t75 56t46.5 90t24 114t6.5 135.5z" />
    <glyph glyph-name="p" unicode="p" horiz-adv-x="1024" 
d="M944 481v-2q0 -233 -105 -367.5t-313 -134.5q-103 0 -215 23q6 -70 6 -111v-254l164 -24v-47h-448v47l119 24v1235l-107 25v45h264l2 -55q42 36 112 58t144 22q97 0 170 -35.5t118 -101t67 -152.5t22 -195zM764 479h-2q0 86 -12 151.5t-39.5 118.5t-78 81t-122.5 28
q-122 0 -195 -33v-751q100 -17 197 -17q252 0 252 422z" />
    <glyph glyph-name="q" unicode="q" horiz-adv-x="1024" 
d="M74 467l2 2q0 235 105.5 366.5t320.5 131.5q101 0 223 -23l90 43h70v-1349l104 -25v-47h-399v47l129 25v260q0 87 10 165q-109 -83 -270 -83q-385 0 -385 487zM516 86q51 0 111 9.5t92 23.5v749q-100 17 -203 17q-260 0 -260 -416q0 -86 12.5 -152.5t41.5 -120t81 -82
t125 -28.5z" />
    <glyph glyph-name="r" unicode="r" horiz-adv-x="681" 
d="M324 823q52 43 156 92.5t169 49.5h15v-254h-43l-58 110q-55 0 -124.5 -15t-112.5 -34v-702l161 -25v-45h-446v45l119 25v800l-119 25v45h274z" />
    <glyph glyph-name="s" unicode="s" horiz-adv-x="796" 
d="M399 885h-4q-78 0 -122 -38.5t-44 -109.5q0 -64 40.5 -100t113.5 -62q145 -49 192 -73q144 -77 144 -240q0 -285 -350 -285q-65 0 -154 14.5t-133 33.5v231h45l49 -131q77 -68 197 -68q194 0 194 166q0 121 -153 174l-88 29q-94 31 -141 61.5t-76 90.5q-25 52 -25 120
q0 127 87 197t226 70q97 0 258 -31v-205h-47l-43 109q-53 47 -166 47z" />
    <glyph glyph-name="t" unicode="t" horiz-adv-x="567" 
d="M557 35q-31 -23 -98.5 -39t-124.5 -16q-96 0 -143.5 57t-47.5 160v659h-123v45l125 39l101 213h63v-213h215v-84h-215v-641q0 -60 27 -95.5t80 -35.5t141 16v-65z" />
    <glyph glyph-name="u" unicode="u" horiz-adv-x="1024" 
d="M707 76h-5q-65 -36 -156 -66t-161 -30q-240 0 -240 276v614l-120 25v45h286v-672q0 -172 160 -172q122 0 234 31v743l-142 25v45h307v-870l119 -25v-45h-274z" />
    <glyph glyph-name="v" unicode="v" horiz-adv-x="1024" 
d="M557 -20h-74l-387 890l-96 25v45h438v-45l-149 -27l274 -649l262 651l-149 25v45h348v-45l-90 -21z" />
    <glyph glyph-name="w" unicode="w" horiz-adv-x="1478" 
d="M1051 -20h-78l-232 620l-229 -620h-74l-325 890l-111 25v45h447v-45l-156 -27l223 -635l227 613h84l226 -617l213 641l-154 25v45h358v-45l-104 -21z" />
    <glyph glyph-name="x" unicode="x" horiz-adv-x="1024" 
d="M999 45v-45h-426v45l125 23l-217 333l-254 -335l129 -21v-45h-338v45l109 16l309 408l-272 401l-111 25v45h426v-45l-125 -27l181 -270l208 272l-129 25v45h338v-45l-108 -21l-264 -342l309 -466z" />
    <glyph glyph-name="y" unicode="y" horiz-adv-x="1024" 
d="M199 -442l-2 2q-77 0 -154 18v203h47l33 -96q33 -23 86 -23q59 0 100 32t76 87q35 54 92 209l-358 880l-96 25v45h436v-45l-148 -27l254 -657l246 659l-147 25v45h350v-45l-99 -21l-366 -933q-67 -172 -113 -238q-46 -69 -100.5 -107t-136.5 -38z" />
    <glyph glyph-name="z" unicode="z" horiz-adv-x="907" 
d="M55 0v45l516 815h-221q-53 0 -106 -9t-74 -26l-31 -135h-47v250h694v-49l-516 -811h275q55 0 119 13t90 34l51 197h47l-25 -324h-772z" />
    <glyph glyph-name="braceleft" unicode="{" horiz-adv-x="980" 
d="M567 -12q0 -106 38 -160.5t130 -54.5h62v-47h-135q-129 0 -195 78t-66 216v295q0 118 -51.5 177t-163.5 63v45q215 3 215 234v294q0 140 64.5 216.5t196.5 76.5h135v-47h-62q-91 0 -129.5 -54.5t-38.5 -160.5v-330q0 -96 -53.5 -163t-138.5 -88v-3q87 -21 139.5 -87.5
t52.5 -165.5v-334z" />
    <glyph glyph-name="bar" unicode="|" horiz-adv-x="409" 
d="M154 -442v1863h102v-1863h-102z" />
    <glyph glyph-name="braceright" unicode="}" horiz-adv-x="980" 
d="M582 20v-4q0 -137 -66.5 -216t-193.5 -79h-136v48h62q91 0 129.5 54.5t38.5 160.5v333q0 99 52.5 167t139.5 89v2q-85 18 -138.5 86.5t-53.5 165.5v330q0 106 -38 160.5t-130 54.5h-62v47h136q131 0 195.5 -76.5t64.5 -216.5v-295q0 -230 215 -233v-45
q-110 -4 -162.5 -63t-52.5 -175v-295z" />
    <glyph glyph-name="asciitilde" unicode="~" horiz-adv-x="1107" 
d="M326 743l-7 -4q-38 0 -66 -12.5t-45 -32t-29 -52t-17.5 -65.5t-9.5 -79h-101q18 186 86 266t185 80q50 0 116 -29q60 -26 135 -92q91 -75 129 -96q45 -25 78 -25q70 0 111 53q39 50 57 191h103q-15 -120 -43.5 -192t-89.5 -115q-52 -37 -136 -37q-106 0 -245 121
q-75 66 -123 92q-51 28 -88 28z" />
    <glyph glyph-name="uni00A0" unicode="&#xa0;" horiz-adv-x="512" 
 />
    <glyph glyph-name="exclamdown" unicode="&#xa1;" horiz-adv-x="681" 
d="M340 719q-51 0 -86 35t-35 86q0 50 35 85.5t86 35.5t86 -35.5t35 -85.5q0 -51 -35 -86t-86 -35zM449 -410h-218l62 953h94z" />
    <glyph glyph-name="cent" unicode="&#xa2;" horiz-adv-x="1024" 
d="M895 264l-2 -2q-79 -65 -275 -76v-186h-81v186q-410 23 -410 498q0 219 105 346t305 139v172h81v-170q134 -6 254 -30v-262h-55l-43 165q-63 37 -153 46v-799h22q149 0 252 33v-60zM305 682v-2q0 -170 52.5 -263t177.5 -118v788q-230 -27 -230 -405z" />
    <glyph glyph-name="sterling" unicode="&#xa3;" horiz-adv-x="1024" 
d="M598 1356l2 -2q59 0 106 -5.5t75.5 -11.5t111.5 -26v-258h-66l-34 164q-92 53 -193 53q-229 0 -229 -266q0 -133 28 -295h279v-82h-262q16 -115 16 -170q0 -90 -37 -160q-39 -74 -125 -145h691v-154h-838v117l72 63q143 125 143 252q0 12 -1 24t-3.5 25.5t-4 22
t-6.5 23.5t-6.5 21t-8.5 22.5t-8 19.5t-9 21.5t-8 19.5h-162v82h127q-68 157 -68 295q0 178 109.5 264t308.5 86z" />
    <glyph glyph-name="currency" unicode="&#xa4;" horiz-adv-x="1024" 
d="M123 676q0 131 80 237l-107 107l74 74l104 -109q107 82 238 82t238 -82l108 109l72 -72l-109 -109q82 -110 82 -237q0 -131 -82 -238l109 -106l-72 -72l-108 107q-103 -80 -238 -80q-132 0 -238 80l-106 -107l-72 72l107 106q-80 106 -80 238zM807 676q0 120 -87.5 207.5
t-207.5 87.5q-83 0 -149.5 -41.5t-104.5 -106.5q-39 -65 -39 -147q0 -83 42 -149.5t106 -104.5q65 -39 145 -39q120 0 207.5 86.5t87.5 206.5z" />
    <glyph glyph-name="yen" unicode="&#xa5;" horiz-adv-x="1024" 
d="M885 393v-82h-279v-231l172 -27v-53h-536v53l172 27v231h-279v82h279v129l-15 35h-264v82h230l-263 623l-100 26v53h453v-53l-131 -26l239 -619l246 619l-123 26v53h336v-53l-104 -26l-265 -623h232v-82h-267l-12 -29v-135h279z" />
    <glyph glyph-name="brokenbar" unicode="&#xa6;" horiz-adv-x="409" 
d="M154 801v620h102v-620h-102zM154 -442v622h102v-622h-102z" />
    <glyph glyph-name="section" unicode="&#xa7;" horiz-adv-x="1024" 
d="M872 623l2 -5q0 -113 -72 -184t-186 -96q94 -54 136 -96q92 -89 92 -215q0 -145 -97 -215t-264 -70q-65 0 -159.5 15t-137.5 32v231h45l39 -131q29 -28 92.5 -47.5t122.5 -19.5q95 0 150 41.5t55 124.5q0 41 -14.5 75t-41.5 60t-52 42.5t-60 35.5q-122 65 -192 108
q-166 102 -166 271q0 100 69 168t168 88q-108 56 -157 125q-49 70 -49 159q0 127 86.5 196.5t226.5 69.5q114 0 258 -24v-211h-47l-33 109q-56 47 -176 47q-78 0 -122 -38.5t-44 -109.5q0 -87 88 -145q39 -24 176 -88q111 -51 158 -92q106 -91 106 -211zM524 389
q87 10 142 57.5t55 128.5q0 47 -21 78t-61 60q-44 32 -131 71q-80 -3 -137.5 -49.5t-57.5 -120.5q0 -83 70 -139q40 -31 141 -86z" />
    <glyph glyph-name="dieresis" unicode="&#xa8;" horiz-adv-x="681" 
d="M520 1294q43 0 70.5 -28.5t27.5 -71.5q0 -41 -28.5 -70.5t-69.5 -29.5t-70.5 30t-29.5 70q0 43 28.5 71.5t71.5 28.5zM164 1294q43 0 70.5 -28.5t27.5 -71.5t-27.5 -71.5t-70.5 -28.5q-40 0 -70.5 30t-30.5 70q0 41 30.5 70.5t70.5 29.5z" />
    <glyph glyph-name="copyright" unicode="&#xa9;" horiz-adv-x="1554" 
d="M88 670l2 -2q0 199 97.5 357t246.5 243q160 92 346 92q198 0 355 -97t245 -247q93 -162 93 -348q0 -196 -96.5 -351t-246.5 -243q-158 -94 -350 -94q-198 0 -355 97t-245 247q-92 160 -92 346zM160 668l-2 -4q0 -178 88 -320t223 -219q143 -82 309 -82q178 0 319 86
t220 221q84 147 84 314q0 178 -89.5 321.5t-224.5 220.5q-143 82 -309 82q-178 0 -318.5 -88t-217.5 -223q-82 -143 -82 -309zM801 1018h2q-154 0 -214.5 -88.5t-60.5 -270.5q0 -348 269 -348q140 0 215 60l22 118h49l-4 -198q-121 -39 -282 -39q-195 0 -305.5 106.5
t-110.5 298.5q0 207 105.5 314.5t312.5 107.5q115 0 268 -30l4 -187h-49l-18 105q-80 51 -203 51z" />
    <glyph glyph-name="ordfeminine" unicode="&#xaa;" horiz-adv-x="563" 
d="M184 774q-149 0 -149 168q0 49 17.5 82.5t52.5 52t78.5 27t103.5 10.5l84 2v80q0 111 -97 111q-57 0 -110 -29l-21 -59h-43v122q83 21 181 21q104 0 157.5 -40.5t53.5 -131.5v-352l69 -15v-37h-174l-12 62q-31 -31 -83.5 -52.5t-107.5 -21.5zM156 946v-2q0 -50 20.5 -73
t65.5 -23q61 0 129 39v174q-119 -2 -140 -5q-55 -10 -69 -55q-6 -21 -6 -55z" />
    <glyph glyph-name="guillemotleft" unicode="&#xab;" horiz-adv-x="1024" 
d="M117 496l334 356h81l-227 -389l227 -389h-81l-334 356v66zM526 496l334 356h82l-227 -389l227 -389h-82l-334 356v66z" />
    <glyph glyph-name="logicalnot" unicode="&#xac;" horiz-adv-x="1153" 
d="M1055 731v-528h-103v426h-850v102h953z" />
    <glyph glyph-name="uni00AD" unicode="&#xad;" horiz-adv-x="681" 
d="M76 406v153h532v-153h-532z" />
    <glyph glyph-name="registered" unicode="&#xae;" horiz-adv-x="1554" 
d="M88 670l2 -2q0 199 97.5 357t246.5 243q160 92 346 92q198 0 355 -97t245 -247q93 -162 93 -348q0 -196 -96.5 -351t-246.5 -243q-158 -94 -350 -94q-198 0 -355 97t-245 247q-92 160 -92 346zM160 668l-2 -4q0 -178 88 -320t223 -219q143 -82 309 -82q178 0 319 86
t220 221q84 147 84 314q0 178 -89.5 321.5t-224.5 220.5q-143 82 -309 82q-178 0 -318.5 -88t-217.5 -223q-82 -143 -82 -309zM1073 854q0 -158 -178 -217l213 -307l84 -17v-43h-205l-229 348h-90v-288l114 -17v-43h-346v43l96 17v688l-104 16v41h330q145 0 230 -52.5
t85 -168.5zM735 682q106 0 151.5 36.5t45.5 133.5q0 94 -46 128t-155 34h-63v-332h67z" />
    <glyph glyph-name="macron" unicode="&#xaf;" horiz-adv-x="681" 
d="M27 1141v108h628v-108h-628z" />
    <glyph glyph-name="degree" unicode="&#xb0;" horiz-adv-x="817" 
d="M408 741l2 -2q-128 0 -219 91.5t-91 218.5q0 89 43 159t111 109q73 43 156 43q89 0 159 -43t109 -111q43 -73 43 -155q0 -90 -45 -162t-113 -109q-71 -39 -155 -39zM410 1260q-87 0 -147 -61.5t-60 -149.5q0 -86 61 -147.5t146 -61.5q88 0 148 60.5t60 148.5t-60.5 149.5
t-147.5 61.5z" />
    <glyph glyph-name="plusminus" unicode="&#xb1;" horiz-adv-x="1122" 
d="M612 629v-426h-102v426h-424v102h424v426h102v-426h426v-102h-426zM1038 102v-102h-952v102h952z" />
    <glyph glyph-name="two.superior" unicode="&#xb2;" horiz-adv-x="612" 
d="M276 1350l-2 2q126 0 200.5 -52t74.5 -159q0 -98 -45 -172q-48 -79 -166 -185l-160 -141h387v-108h-499v96l110 100q98 85 148 148q43 55 63.5 114.5t20.5 145.5q0 143 -132 143q-64 0 -114 -33l-21 -98h-55v172q111 27 190 27z" />
    <glyph glyph-name="three.superior" unicode="&#xb3;" horiz-adv-x="612" 
d="M539 1151q0 -82 -53 -132t-136 -63q225 -27 225 -202q0 -113 -88.5 -172.5t-222.5 -59.5q-104 0 -215 27l-6 186h55l27 -112q64 -33 131 -33q98 0 137 37t39 133q0 83 -38 119t-124 39l-86 6v65l86 4q69 1 97 37t28 113q0 78 -30 108.5t-109 30.5q-60 0 -113 -29
l-20 -102h-55v172q111 27 188 27q125 0 204 -49t79 -150z" />
    <glyph glyph-name="acute" unicode="&#xb4;" horiz-adv-x="681" 
d="M156 1118v33l196 272h213v-37l-354 -268h-55z" />
    <glyph glyph-name="mu" unicode="&#xb5;" horiz-adv-x="1097" 
d="M895 940l-2 -870l119 -25v-45h-275l-8 86q-150 -106 -266 -106q-80 0 -133 47v-465h-166v1378h166v-672q0 -172 166 -172q111 0 233 45v799h166z" />
    <glyph glyph-name="paragraph" unicode="&#xb6;" horiz-adv-x="927" 
d="M8 963q0 187 115 282.5t319 95.5h463v-53l-94 -22v-1524h-94v1524h-170v-1524h-94l2 823q-204 0 -325.5 104t-121.5 294z" />
    <glyph glyph-name="periodcentered" unicode="&#xb7;" horiz-adv-x="512" 
d="M256 799q51 0 86 -35.5t35 -85.5q0 -51 -35 -86t-86 -35t-86 35t-35 86q0 50 35 85.5t86 35.5z" />
    <glyph glyph-name="cedilla" unicode="&#xb8;" horiz-adv-x="681" 
d="M334 -63h2q86 -8 140 -50.5t54 -119.5q0 -95 -70.5 -149t-176.5 -54q-74 0 -138 22v74q61 -16 117 -16q55 0 85 27t30 77q0 54 -43.5 83t-108.5 34l41 153h86z" />
    <glyph glyph-name="one.superior" unicode="&#xb9;" horiz-adv-x="612" 
d="M375 598l166 -14v-49h-475v49l165 14v625l-161 -58v47l233 134h72v-748z" />
    <glyph glyph-name="ordmasculine" unicode="&#xba;" horiz-adv-x="634" 
d="M319 1362q133 0 206 -78t73 -215q0 -142 -73.5 -220.5t-211.5 -78.5q-132 0 -204 80.5t-72 218.5q0 140 73 216.5t209 76.5zM313 829q47 0 78.5 16.5t48 50t23 74t6.5 99.5q0 119 -32.5 177.5t-123.5 58.5q-87 0 -117 -57.5t-30 -178.5q0 -122 30 -181t117 -59z" />
    <glyph glyph-name="guillemotright" unicode="&#xbb;" horiz-adv-x="1024" 
d="M907 430l-334 -356h-81l227 389l-227 389h81l334 -356v-66zM498 430l-334 -356h-82l227 389l-227 389h82l334 -356v-66z" />
    <glyph glyph-name="onequarter" unicode="&#xbc;" horiz-adv-x="1536" 
d="M336 0h-103l965 1341h100zM375 598l166 -14v-49h-475v49l165 14v625l-161 -58v47l233 134h72v-748zM1292 160v-160h-137v160h-360v96l391 551h106v-545h101v-102h-101zM1155 651h-2l-276 -389h278v389z" />
    <glyph glyph-name="onehalf" unicode="&#xbd;" horiz-adv-x="1536" 
d="M336 0h-103l965 1341h100zM375 598l166 -14v-49h-475v49l165 14v625l-161 -58v47l233 134h72v-748zM1167 815l-2 2q126 0 200.5 -52t74.5 -159q0 -98 -45 -172q-46 -76 -166 -184l-160 -141h387v-109h-500v96l111 101q97 84 147 147q43 55 63.5 114.5t20.5 145.5
q0 144 -131 144q-64 0 -114 -33l-21 -99h-55v172q111 27 190 27z" />
    <glyph glyph-name="threequarters" unicode="&#xbe;" horiz-adv-x="1536" 
d="M336 0h-103l965 1341h100zM569 1151q0 -82 -52.5 -132t-135.5 -63q225 -27 225 -202q0 -113 -88.5 -172.5t-222.5 -59.5q-104 0 -215 27l-6 186h55l27 -112q64 -33 131 -33q98 0 137 37t39 133q0 83 -38 119t-124 39l-86 6v65l86 4q69 1 97 37t28 113q0 78 -30 108.5
t-109 30.5q-60 0 -113 -29l-20 -102h-56v172q111 27 189 27q125 0 203.5 -49t78.5 -150zM1264 160v-160h-138v160h-360v96l391 551h107v-545h100v-102h-100zM1126 651h-2l-276 -389h278v389z" />
    <glyph glyph-name="questiondown" unicode="&#xbf;" horiz-adv-x="907" 
d="M268 -72h-2q0 -144 53 -206t187 -62q114 0 196 49l35 164h66v-254q-145 -43 -295 -43q-424 0 -424 340q0 165 82.5 263t232.5 130l58 13l12 260h80l26 -334l-143 -29q-91 -18 -127.5 -90.5t-36.5 -200.5zM498 719q-51 0 -86 35t-35 86q0 50 35 85.5t86 35.5q50 0 85 -35
t35 -86t-35 -86t-85 -35z" />
    <glyph glyph-name="Agrave" unicode="&#xc0;" horiz-adv-x="1478" 
d="M461 53v-53h-441v53l152 27l457 1272h190l475 -1272l170 -27v-53h-567v53l180 27l-133 387h-528l-135 -387zM676 1208l-230 -651h467zM797 1452l-355 268v37h213l197 -272v-33h-55z" />
    <glyph glyph-name="Aacute" unicode="&#xc1;" horiz-adv-x="1478" 
d="M461 53v-53h-441v53l152 27l457 1272h190l475 -1272l170 -27v-53h-567v53l180 27l-133 387h-528l-135 -387zM676 1208l-230 -651h467zM610 1452v33l197 272h213v-37l-354 -268h-56z" />
    <glyph glyph-name="Acircumflex" unicode="&#xc2;" horiz-adv-x="1478" 
d="M461 53v-53h-441v53l152 27l457 1272h190l475 -1272l170 -27v-53h-567v53l180 27l-133 387h-528l-135 -387zM676 1208l-230 -651h467zM395 1452v33l217 274h213l217 -274v-33h-55l-268 184l-268 -184h-56z" />
    <glyph glyph-name="Atilde" unicode="&#xc3;" horiz-adv-x="1478" 
d="M461 53v-53h-441v53l152 27l457 1272h190l475 -1272l170 -27v-53h-567v53l180 27l-133 387h-528l-135 -387zM676 1208l-230 -651h467zM889 1575v-2q50 0 70 28.5t28 90.5h51q-15 -242 -196 -242q-71 0 -164 70q-57 41 -70 49q-36 22 -67 22q-52 0 -71 -28t-30 -90h-51
q15 241 197 241q32 0 66 -12t52 -24t48 -33q9 -6 23 -17t25 -19t21 -14q33 -20 68 -20z" />
    <glyph glyph-name="Adieresis" unicode="&#xc4;" horiz-adv-x="1478" 
d="M461 53v-53h-441v53l152 27l457 1272h190l475 -1272l170 -27v-53h-567v53l180 27l-133 387h-528l-135 -387zM676 1208l-230 -651h467zM905 1659q43 0 71 -28.5t28 -71.5q0 -41 -29 -71t-70 -30t-70.5 30.5t-29.5 70.5q0 43 28.5 71.5t71.5 28.5zM549 1659
q43 0 70.5 -28.5t27.5 -71.5t-28 -72t-70 -29q-40 0 -70 30.5t-30 70.5q0 41 30 70.5t70 29.5z" />
    <glyph glyph-name="Aring" unicode="&#xc5;" horiz-adv-x="1478" 
d="M461 53v-53h-441v53l152 27l457 1272h190l475 -1272l170 -27v-53h-567v53l180 27l-133 387h-528l-135 -387zM676 1208l-230 -651h467zM723 1679q83 0 143 -59.5t60 -142.5t-60 -143t-143 -60t-143 60t-60 143t60 142.5t143 59.5zM723 1354q50 0 86.5 36t36.5 87t-36 86.5
t-87 35.5t-87 -35.5t-36 -86.5t36.5 -87t86.5 -36z" />
    <glyph glyph-name="AE" unicode="&#xc6;" horiz-adv-x="1820" 
d="M731 53l154 27v387h-412l-207 -387l158 -27v-53h-401v53l135 27l647 1190l-164 18v53h995v-321h-65l-33 217q-106 14 -326 14h-137v-524h281l30 160h64v-412h-64l-30 162h-281v-547h182q253 0 338 16l58 248h65l-18 -354h-969v53zM885 557v674l-363 -674h363z" />
    <glyph glyph-name="Ccedilla" unicode="&#xc7;" horiz-adv-x="1363" 
d="M293 657q0 -137 28 -245.5t85.5 -188.5t151 -123t218.5 -43q109 0 211 27.5t164 73.5l37 200h65l-6 -315q-212 -63 -473 -63q-324 0 -507 177.5t-183 497.5q0 346 175 523.5t519 177.5q216 0 449 -51l6 -293h-66l-30 174q-66 41 -159 65.5t-192 24.5q-109 0 -192.5 -27.5
t-140.5 -78t-93 -128t-51.5 -171.5t-15.5 -214zM762 -63h2q86 -8 140 -50.5t54 -119.5q0 -95 -70.5 -149t-176.5 -54q-74 0 -138 22v74q61 -16 117 -16q55 0 85 27t30 77q0 54 -43.5 83t-108.5 34l41 153h86z" />
    <glyph glyph-name="Egrave" unicode="&#xc8;" horiz-adv-x="1249" 
d="M59 53l174 27v1182l-172 26v53h1006v-321h-66l-32 217q-106 14 -326 14h-219v-524h362l31 160h64v-412h-64l-31 162h-362v-547h264q253 0 338 16l57 248h66l-19 -354h-1071v53zM760 1452l-354 268v37h212l197 -272v-33h-55z" />
    <glyph glyph-name="Eacute" unicode="&#xc9;" horiz-adv-x="1249" 
d="M59 53l174 27v1182l-172 26v53h1006v-321h-66l-32 217q-106 14 -326 14h-219v-524h362l31 160h64v-412h-64l-31 162h-362v-547h264q253 0 338 16l57 248h66l-19 -354h-1071v53zM471 1452v33l197 272h213v-37l-355 -268h-55z" />
    <glyph glyph-name="Ecircumflex" unicode="&#xca;" horiz-adv-x="1249" 
d="M59 53l174 27v1182l-172 26v53h1006v-321h-66l-32 217q-106 14 -326 14h-219v-524h362l31 160h64v-412h-64l-31 162h-362v-547h264q253 0 338 16l57 248h66l-19 -354h-1071v53zM305 1452v33l217 274h213l217 -274v-33h-55l-268 184l-269 -184h-55z" />
    <glyph glyph-name="Edieresis" unicode="&#xcb;" horiz-adv-x="1249" 
d="M59 53l174 27v1182l-172 26v53h1006v-321h-66l-32 217q-106 14 -326 14h-219v-524h362l31 160h64v-412h-64l-31 162h-362v-547h264q253 0 338 16l57 248h66l-19 -354h-1071v53zM817 1659q43 0 70.5 -28.5t27.5 -71.5q0 -42 -28.5 -71.5t-69.5 -29.5t-70.5 30.5
t-29.5 70.5q0 43 28.5 71.5t71.5 28.5zM461 1659q43 0 70.5 -28.5t27.5 -71.5t-28 -72t-70 -29q-40 0 -70.5 30.5t-30.5 70.5q0 41 30.5 70.5t70.5 29.5z" />
    <glyph glyph-name="Igrave" unicode="&#xcc;" horiz-adv-x="681" 
d="M438 80l172 -27v-53h-536v53l172 27v1182l-172 26v53h536v-53l-172 -26v-1182zM408 1452l-355 268v37h213l197 -272v-33h-55z" />
    <glyph glyph-name="Iacute" unicode="&#xcd;" horiz-adv-x="681" 
d="M438 80l172 -27v-53h-536v53l172 27v1182l-172 26v53h536v-53l-172 -26v-1182zM209 1452v33l197 272h212v-37l-354 -268h-55z" />
    <glyph glyph-name="Icircumflex" unicode="&#xce;" horiz-adv-x="681" 
d="M438 80l172 -27v-53h-536v53l172 27v1182l-172 26v53h536v-53l-172 -26v-1182zM18 1452v33l218 274h213l217 -274v-33h-56l-268 184l-268 -184h-56z" />
    <glyph glyph-name="Idieresis" unicode="&#xcf;" horiz-adv-x="681" 
d="M438 80l172 -27v-53h-536v53l172 27v1182l-172 26v53h536v-53l-172 -26v-1182zM520 1659q43 0 70.5 -28.5t27.5 -71.5q0 -42 -28.5 -71.5t-69.5 -29.5t-70.5 30.5t-29.5 70.5q0 43 28.5 71.5t71.5 28.5zM164 1659q43 0 70.5 -28.5t27.5 -71.5t-28 -72t-70 -29
q-40 0 -70.5 30.5t-30.5 70.5q0 41 30.5 70.5t70.5 29.5z" />
    <glyph glyph-name="Eth" unicode="&#xd0;" horiz-adv-x="1478" 
d="M1397 678q0 -342 -164 -512t-500 -170l-502 4h-172v53l172 27v549h-178v82h178v551l-172 26v53h572q366 0 566 -164.5t200 -498.5zM1188 670h2q0 293 -150.5 437t-451.5 144h-162v-540h377v-82h-377v-535q107 -8 283 -8q258 0 368.5 145.5t110.5 438.5z" />
    <glyph glyph-name="Ntilde" unicode="&#xd1;" horiz-adv-x="1478" 
d="M1155 1262l-180 26v53h457v-53l-172 -26v-1262h-97l-827 1206v-1126l180 -27v-53h-457v53l172 27v1182l-172 26v53h406l690 -993v914zM922 1575v-2q50 0 70 28.5t28 90.5h51q-15 -242 -197 -242q-32 0 -64.5 12.5t-52 24.5t-46.5 33q-57 41 -70 49q-36 22 -68 22
q-28 0 -46 -7.5t-28.5 -26t-15.5 -36t-10 -48.5h-51q15 241 196 241q32 0 66 -12t52 -24t48 -33q66 -48 70 -50q33 -20 68 -20z" />
    <glyph glyph-name="Ograve" unicode="&#xd2;" horiz-adv-x="1478" 
d="M739 1276v-2q-128 0 -216 -40t-138 -121t-71 -187.5t-21 -255.5q0 -323 108 -467t338 -144q102 0 179 28t128 78.5t82.5 127.5t44.5 169t13 210q0 321 -109 463q-108 141 -338 141zM739 -23q-324 0 -489.5 178.5t-165.5 514.5q0 684 655 684q326 0 491 -175t165 -509
q0 -336 -166 -514.5t-490 -178.5zM840 1450l-355 268v37h213l197 -272v-33h-55z" />
    <glyph glyph-name="Oacute" unicode="&#xd3;" horiz-adv-x="1478" 
d="M739 1276v-2q-128 0 -216 -40t-138 -121t-71 -187.5t-21 -255.5q0 -323 108 -467t338 -144q102 0 179 28t128 78.5t82.5 127.5t44.5 169t13 210q0 321 -109 463q-108 141 -338 141zM739 -23q-324 0 -489.5 178.5t-165.5 514.5q0 684 655 684q326 0 491 -175t165 -509
q0 -336 -166 -514.5t-490 -178.5zM627 1450v33l196 272h213v-37l-354 -268h-55z" />
    <glyph glyph-name="Ocircumflex" unicode="&#xd4;" horiz-adv-x="1478" 
d="M739 1276v-2q-128 0 -216 -40t-138 -121t-71 -187.5t-21 -255.5q0 -323 108 -467t338 -144q102 0 179 28t128 78.5t82.5 127.5t44.5 169t13 210q0 321 -109 463q-108 141 -338 141zM739 -23q-324 0 -489.5 178.5t-165.5 514.5q0 684 655 684q326 0 491 -175t165 -509
q0 -336 -166 -514.5t-490 -178.5zM418 1450v33l217 274h213l217 -274v-33h-55l-269 184l-268 -184h-55z" />
    <glyph glyph-name="Otilde" unicode="&#xd5;" horiz-adv-x="1478" 
d="M739 1276v-2q-128 0 -216 -40t-138 -121t-71 -187.5t-21 -255.5q0 -323 108 -467t338 -144q102 0 179 28t128 78.5t82.5 127.5t44.5 169t13 210q0 321 -109 463q-108 141 -338 141zM739 -23q-324 0 -489.5 178.5t-165.5 514.5q0 684 655 684q326 0 491 -175t165 -509
q0 -336 -166 -514.5t-490 -178.5zM909 1573v-2q50 0 70.5 28.5t28.5 90.5h51q-15 -242 -197 -242q-71 0 -164 70q-63 45 -69 49q-36 22 -68 22q-28 0 -46 -8t-28.5 -26.5t-15.5 -35.5t-10 -49h-51q15 242 196 242q32 0 66 -12.5t51.5 -24t48.5 -33.5q57 -41 70 -49
q33 -20 67 -20z" />
    <glyph glyph-name="Odieresis" unicode="&#xd6;" horiz-adv-x="1478" 
d="M739 1276v-2q-128 0 -216 -40t-138 -121t-71 -187.5t-21 -255.5q0 -323 108 -467t338 -144q102 0 179 28t128 78.5t82.5 127.5t44.5 169t13 210q0 321 -109 463q-108 141 -338 141zM739 -23q-324 0 -489.5 178.5t-165.5 514.5q0 684 655 684q326 0 491 -175t165 -509
q0 -336 -166 -514.5t-490 -178.5zM915 1657q43 0 71 -29t28 -72q0 -41 -29 -70.5t-70 -29.5t-70.5 30t-29.5 70q0 43 28.5 72t71.5 29zM559 1657q42 0 70 -29t28 -72t-27.5 -71.5t-70.5 -28.5q-40 0 -70 30t-30 70q0 41 30 71t70 30z" />
    <glyph glyph-name="multiply" unicode="&#xd7;" horiz-adv-x="1153" 
d="M578 608l-345 -344l-71 72l344 346l-344 342l74 74l342 -344l346 344l71 -72l-344 -344l344 -346l-71 -72z" />
    <glyph glyph-name="Oslash" unicode="&#xd8;" horiz-adv-x="1478" 
d="M1395 672q0 -336 -166 -514t-490 -178q-258 0 -413 110l-121 -145h-119l170 205q-172 175 -172 522q0 684 655 684q260 0 418 -113l123 148h115l-170 -205q170 -179 170 -514zM739 1276l-2 2q-128 0 -216 -40t-138 -121t-71 -187.5t-21 -255.5q0 -255 65 -400l715 865
q-107 137 -332 137zM737 61h-2q102 0 179 28t128 78.5t82.5 127.5t44.5 169t13 210q0 244 -64 387l-712 -866q110 -134 331 -134z" />
    <glyph glyph-name="Ugrave" unicode="&#xd9;" horiz-adv-x="1478" 
d="M762 92q190 0 293.5 90.5t103.5 270.5v809l-180 26v53h457v-53l-172 -26v-801q0 -242 -132 -361.5t-384 -119.5q-254 0 -393.5 115.5t-139.5 346.5v820l-172 26v53h537v-53l-172 -26v-805q0 -365 354 -365zM844 1452l-355 268v37h213l197 -272v-33h-55z" />
    <glyph glyph-name="Uacute" unicode="&#xda;" horiz-adv-x="1478" 
d="M762 92q190 0 293.5 90.5t103.5 270.5v809l-180 26v53h457v-53l-172 -26v-801q0 -242 -132 -361.5t-384 -119.5q-254 0 -393.5 115.5t-139.5 346.5v820l-172 26v53h537v-53l-172 -26v-805q0 -365 354 -365zM651 1452v33l197 272h213v-37l-354 -268h-56z" />
    <glyph glyph-name="Ucircumflex" unicode="&#xdb;" horiz-adv-x="1478" 
d="M762 92q190 0 293.5 90.5t103.5 270.5v809l-180 26v53h457v-53l-172 -26v-801q0 -242 -132 -361.5t-384 -119.5q-254 0 -393.5 115.5t-139.5 346.5v820l-172 26v53h537v-53l-172 -26v-805q0 -365 354 -365zM444 1452v33l218 274h212l218 -274v-33h-56l-268 184l-268 -184
h-56z" />
    <glyph glyph-name="Udieresis" unicode="&#xdc;" horiz-adv-x="1478" 
d="M762 92q190 0 293.5 90.5t103.5 270.5v809l-180 26v53h457v-53l-172 -26v-801q0 -242 -132 -361.5t-384 -119.5q-254 0 -393.5 115.5t-139.5 346.5v820l-172 26v53h537v-53l-172 -26v-805q0 -365 354 -365zM920 1659q43 0 70.5 -28.5t27.5 -71.5q0 -42 -28.5 -71.5
t-69.5 -29.5t-71 30.5t-30 70.5q0 43 29 71.5t72 28.5zM563 1659q43 0 71 -28.5t28 -71.5t-28 -72t-71 -29q-40 0 -70 30.5t-30 70.5q0 41 30 70.5t70 29.5z" />
    <glyph glyph-name="Yacute" unicode="&#xdd;" horiz-adv-x="1478" 
d="M838 528v-448l213 -27v-53h-619v53l213 27v442l-471 740l-151 26v53h567v-53l-180 -26l385 -619l366 619l-170 26v53h436v-53l-147 -26zM641 1452v33l197 272h213v-37l-355 -268h-55z" />
    <glyph glyph-name="Thorn" unicode="&#xde;" horiz-adv-x="1138" 
d="M528 346q169 0 249.5 83.5t80.5 256.5q0 170 -80.5 245t-255.5 75h-98v-660h104zM1057 688q0 -211 -126.5 -315.5t-355.5 -104.5h-151v-188l172 -27v-53h-524v53l159 27v1182l-159 26v53h524v-53l-172 -26v-179h141q492 0 492 -395z" />
    <glyph glyph-name="germandbls" unicode="&#xdf;" horiz-adv-x="1024" 
d="M160 1061h2q0 186 90 283.5t270 97.5q195 0 276 -110t81 -335q-48 -4 -79.5 -9t-70 -17t-61.5 -30t-38.5 -49t-15.5 -73q0 -76 39 -129q40 -55 131 -119q84 -60 127 -131.5t43 -181.5q0 -138 -78 -207t-223 -69q-59 0 -130 13.5t-105 33.5v192h45l33 -94q55 -66 153 -66
q150 0 150 166q0 86 -39 142q-39 57 -129 116q-82 57 -125 125t-43 174q0 220 250 263q0 77 -7 129t-27 97t-59.5 67t-99.5 22q-194 0 -194 -252v-1110h-306v45l140 25v991z" />
    <glyph glyph-name="agrave" unicode="&#xe0;" horiz-adv-x="907" 
d="M598 696v-2q0 93 -33.5 141t-111.5 48q-102 0 -185 -47l-35 -117h-55v205q161 34 285 34q150 0 224.5 -60t74.5 -196v-634l117 -25v-45h-258l-19 94q-115 -115 -289 -115q-241 0 -241 281q0 82 26 138.5t79 88t119.5 45t160.5 15.5l141 4v147zM381 88v-2q112 0 217 55
v334l-131 -4q-128 -3 -178.5 -46.5t-50.5 -160.5q0 -176 143 -176zM545 1114l-355 268v37h213l197 -272v-33h-55z" />
    <glyph glyph-name="aacute" unicode="&#xe1;" horiz-adv-x="907" 
d="M598 696v-2q0 93 -33.5 141t-111.5 48q-102 0 -185 -47l-35 -117h-55v205q161 34 285 34q150 0 224.5 -60t74.5 -196v-634l117 -25v-45h-258l-19 94q-115 -115 -289 -115q-241 0 -241 281q0 82 26 138.5t79 88t119.5 45t160.5 15.5l141 4v147zM381 88v-2q112 0 217 55
v334l-131 -4q-128 -3 -178.5 -46.5t-50.5 -160.5q0 -176 143 -176zM342 1114v33l197 272h213v-37l-355 -268h-55z" />
    <glyph glyph-name="acircumflex" unicode="&#xe2;" horiz-adv-x="907" 
d="M598 696v-2q0 93 -33.5 141t-111.5 48q-102 0 -185 -47l-35 -117h-55v205q161 34 285 34q150 0 224.5 -60t74.5 -196v-634l117 -25v-45h-258l-19 94q-115 -115 -289 -115q-241 0 -241 281q0 82 26 138.5t79 88t119.5 45t160.5 15.5l141 4v147zM381 88v-2q112 0 217 55
v334l-131 -4q-128 -3 -178.5 -46.5t-50.5 -160.5q0 -176 143 -176zM143 1114v33l217 274h213l218 -274v-33h-56l-268 184l-268 -184h-56z" />
    <glyph glyph-name="atilde" unicode="&#xe3;" horiz-adv-x="907" 
d="M598 696v-2q0 93 -33.5 141t-111.5 48q-102 0 -185 -47l-35 -117h-55v205q161 34 285 34q150 0 224.5 -60t74.5 -196v-634l117 -25v-45h-258l-19 94q-115 -115 -289 -115q-241 0 -241 281q0 82 26 138.5t79 88t119.5 45t160.5 15.5l141 4v147zM381 88v-2q112 0 217 55
v334l-131 -4q-128 -3 -178.5 -46.5t-50.5 -160.5q0 -176 143 -176zM629 1237v-2q50 0 70 28.5t28 90.5h51q-15 -242 -196 -242q-71 0 -164 70q-57 41 -70 49q-36 22 -67 22q-52 0 -71 -28t-30 -90h-51q15 241 197 241q32 0 66 -12t52 -24t48 -33q9 -6 23 -17t25 -19t21 -14
q33 -20 68 -20z" />
    <glyph glyph-name="adieresis" unicode="&#xe4;" horiz-adv-x="907" 
d="M598 696v-2q0 93 -33.5 141t-111.5 48q-102 0 -185 -47l-35 -117h-55v205q161 34 285 34q150 0 224.5 -60t74.5 -196v-634l117 -25v-45h-258l-19 94q-115 -115 -289 -115q-241 0 -241 281q0 82 26 138.5t79 88t119.5 45t160.5 15.5l141 4v147zM381 88v-2q112 0 217 55
v334l-131 -4q-128 -3 -178.5 -46.5t-50.5 -160.5q0 -176 143 -176zM635 1290q43 0 70.5 -28.5t27.5 -71.5q0 -41 -28.5 -70.5t-69.5 -29.5t-70.5 30t-29.5 70q0 43 28.5 71.5t71.5 28.5zM279 1290q43 0 70.5 -28.5t27.5 -71.5t-27.5 -71.5t-70.5 -28.5q-40 0 -70.5 30
t-30.5 70q0 41 30.5 70.5t70.5 29.5z" />
    <glyph glyph-name="aring" unicode="&#xe5;" horiz-adv-x="907" 
d="M598 696v-2q0 93 -33.5 141t-111.5 48q-102 0 -185 -47l-35 -117h-55v205q161 34 285 34q150 0 224.5 -60t74.5 -196v-634l117 -25v-45h-258l-19 94q-115 -115 -289 -115q-241 0 -241 281q0 82 26 138.5t79 88t119.5 45t160.5 15.5l141 4v147zM381 88v-2q112 0 217 55
v334l-131 -4q-128 -3 -178.5 -46.5t-50.5 -160.5q0 -176 143 -176zM471 1479q83 0 143 -60t60 -143t-60 -143t-143 -60t-143 60t-60 143t60 143t143 60zM471 1153q50 0 86.5 36t36.5 87t-36 87t-87 36t-87 -36t-36 -87t36.5 -87t86.5 -36z" />
    <glyph glyph-name="ae" unicode="&#xe6;" horiz-adv-x="1363" 
d="M946 965v-2q179 0 265.5 -106.5t86.5 -303.5v-82h-534v-90q3 -159 56 -229t192 -70q48 0 125.5 9.5t122.5 19.5v-56q-52 -34 -131 -56t-158 -22q-231 0 -322 129q-144 -129 -338 -129q-241 0 -241 281q0 82 26 138.5t79 88t119.5 45t160.5 15.5l141 4v147q0 93 -33.5 141
t-111.5 48q-102 0 -185 -47l-35 -117h-55v205q166 35 285 35q168 0 239 -74q90 78 246 78zM625 156q-10 21 -18.5 71.5t-8.5 87.5v160l-131 -4q-128 -3 -178.5 -46.5t-50.5 -160.5q0 -176 143 -176q114 0 244 68zM1124 551h-2q0 73 -7 127.5t-25.5 103.5t-55 75t-90.5 26
q-93 0 -137 -74q-43 -73 -43 -258h360z" />
    <glyph glyph-name="ccedilla" unicode="&#xe7;" horiz-adv-x="907" 
d="M258 477h2q0 -202 76.5 -297.5t257.5 -95.5q149 0 252 33v-60q-48 -36 -135.5 -56.5t-178.5 -20.5q-456 0 -456 497q0 231 114.5 359.5t335.5 128.5q131 0 295 -31v-262h-55l-43 166q-83 47 -197 47q-268 0 -268 -408zM514 -63h2q86 -8 140.5 -50.5t54.5 -119.5
q0 -95 -71 -149t-177 -54q-73 0 -137 22v74q61 -16 116 -16t85 27t30 77q0 55 -43 83.5t-108 33.5l40 153h86z" />
    <glyph glyph-name="egrave" unicode="&#xe8;" horiz-adv-x="907" 
d="M80 477h2q0 232 96.5 360t300.5 128q361 0 361 -410v-82h-578v-18q0 -184 65.5 -277.5t225.5 -93.5q48 0 125.5 9.5t122.5 19.5v-56q-49 -32 -134 -54.5t-165 -22.5q-228 0 -325 121.5t-97 375.5zM479 885v-2q-215 0 -215 -332h402q0 182 -45 256q-47 78 -142 78z
M596 1116l-354 268v37h213l196 -272v-33h-55z" />
    <glyph glyph-name="eacute" unicode="&#xe9;" horiz-adv-x="907" 
d="M80 477h2q0 232 96.5 360t300.5 128q361 0 361 -410v-82h-578v-18q0 -184 65.5 -277.5t225.5 -93.5q48 0 125.5 9.5t122.5 19.5v-56q-49 -32 -134 -54.5t-165 -22.5q-228 0 -325 121.5t-97 375.5zM479 885v-2q-215 0 -215 -332h402q0 182 -45 256q-47 78 -142 78z
M383 1116v33l197 272h213v-37l-355 -268h-55z" />
    <glyph glyph-name="ecircumflex" unicode="&#xea;" horiz-adv-x="907" 
d="M80 477h2q0 232 96.5 360t300.5 128q361 0 361 -410v-82h-578v-18q0 -184 65.5 -277.5t225.5 -93.5q48 0 125.5 9.5t122.5 19.5v-56q-49 -32 -134 -54.5t-165 -22.5q-228 0 -325 121.5t-97 375.5zM479 885v-2q-215 0 -215 -332h402q0 182 -45 256q-47 78 -142 78z
M154 1116v33l217 274h213l217 -274v-33h-56l-268 184l-268 -184h-55z" />
    <glyph glyph-name="edieresis" unicode="&#xeb;" horiz-adv-x="907" 
d="M80 477h2q0 232 96.5 360t300.5 128q361 0 361 -410v-82h-578v-18q0 -184 65.5 -277.5t225.5 -93.5q48 0 125.5 9.5t122.5 19.5v-56q-49 -32 -134 -54.5t-165 -22.5q-228 0 -325 121.5t-97 375.5zM479 885v-2q-215 0 -215 -332h402q0 182 -45 256q-47 78 -142 78z
M647 1292q43 0 70.5 -28.5t27.5 -71.5q0 -41 -28.5 -70.5t-69.5 -29.5t-70.5 30t-29.5 70q0 43 28.5 71.5t71.5 28.5zM291 1292q43 0 70.5 -28.5t27.5 -71.5t-27.5 -71.5t-70.5 -28.5q-40 0 -70.5 30t-30.5 70q0 41 30.5 70.5t70.5 29.5z" />
    <glyph glyph-name="igrave" unicode="&#xec;" horiz-adv-x="567" 
d="M369 70l161 -25v-45h-487v45l160 25v800l-133 25v45h299v-870zM377 1118l-354 268v37h213l196 -272v-33h-55z" />
    <glyph glyph-name="iacute" unicode="&#xed;" horiz-adv-x="567" 
d="M369 70l161 -25v-45h-487v45l160 25v800l-133 25v45h299v-870zM137 1118v33l197 272h213v-37l-354 -268h-56z" />
    <glyph glyph-name="icircumflex" unicode="&#xee;" horiz-adv-x="567" 
d="M369 70l161 -25v-45h-487v45l160 25v800l-133 25v45h299v-870zM-39 1118v33l217 274h213l217 -274v-33h-55l-268 185l-269 -185h-55z" />
    <glyph glyph-name="idieresis" unicode="&#xef;" horiz-adv-x="567" 
d="M369 70l161 -25v-45h-487v45l160 25v800l-133 25v45h299v-870zM451 1294q43 0 70.5 -28.5t27.5 -71.5q0 -41 -28.5 -70.5t-69.5 -29.5t-71 30t-30 70q0 43 29 71.5t72 28.5zM94 1294q43 0 71 -28.5t28 -71.5t-28 -71.5t-71 -28.5q-40 0 -70 30t-30 70q0 41 30 70.5
t70 29.5z" />
    <glyph glyph-name="eth" unicode="&#xf0;" horiz-adv-x="1024" 
d="M78 444h-2q0 224 108.5 341.5t327.5 117.5q107 0 197 -35q-46 177 -185 310l-295 -172v96l228 131q-100 72 -219 110v78q177 -42 315 -133l266 156v-94l-194 -115q310 -252 319 -756l2 -35q0 -464 -440 -464q-215 0 -321.5 119.5t-106.5 344.5zM504 59q60 0 105.5 18.5
t74.5 51t47 81.5t25.5 105.5t7.5 128.5t-7 127.5t-25 104.5t-47 80t-74.5 49t-106.5 18q-130 0 -189 -86t-59 -295q0 -211 59 -297t189 -86z" />
    <glyph glyph-name="ntilde" unicode="&#xf1;" horiz-adv-x="1024" 
d="M713 670q0 178 -166 178q-79 0 -221 -29v-749l127 -25v-45h-406v45l113 25v800l-113 25v45h268l9 -76q183 101 309 101q246 0 246 -277v-618l114 -25v-45h-405v45l125 25v600zM688 1241v-2q50 0 70 28.5t28 90.5h52q-15 -242 -197 -242q-71 0 -164 70q-63 45 -69 49
q-36 22 -68 22q-28 0 -46 -7.5t-28.5 -26t-15.5 -36t-10 -48.5h-52q15 241 197 241q32 0 66 -12t52 -24t48 -33q57 -41 70 -49q35 -21 67 -21z" />
    <glyph glyph-name="ograve" unicode="&#xf2;" horiz-adv-x="1024" 
d="M514 965q219 0 325.5 -127t106.5 -363q0 -495 -440 -495q-217 0 -322.5 129.5t-105.5 365.5t107.5 363t328.5 127zM766 475q0 76 -6.5 134.5t-24 112t-46.5 88t-75 55t-108 20.5t-107 -20t-72 -54t-42.5 -88t-21 -111.5t-5.5 -136.5t5.5 -137.5t21 -113.5t42.5 -89.5
t72 -55t107 -20.5t108 20.5t75 56t46.5 90t24 114t6.5 135.5zM602 1118l-354 268v37h213l196 -272v-33h-55z" />
    <glyph glyph-name="oacute" unicode="&#xf3;" horiz-adv-x="1024" 
d="M514 965q219 0 325.5 -127t106.5 -363q0 -495 -440 -495q-217 0 -322.5 129.5t-105.5 365.5t107.5 363t328.5 127zM766 475q0 76 -6.5 134.5t-24 112t-46.5 88t-75 55t-108 20.5t-107 -20t-72 -54t-42.5 -88t-21 -111.5t-5.5 -136.5t5.5 -137.5t21 -113.5t42.5 -89.5
t72 -55t107 -20.5t108 20.5t75 56t46.5 90t24 114t6.5 135.5zM403 1118v33l197 272h213v-37l-354 -268h-56z" />
    <glyph glyph-name="ocircumflex" unicode="&#xf4;" horiz-adv-x="1024" 
d="M514 965q219 0 325.5 -127t106.5 -363q0 -495 -440 -495q-217 0 -322.5 129.5t-105.5 365.5t107.5 363t328.5 127zM766 475q0 76 -6.5 134.5t-24 112t-46.5 88t-75 55t-108 20.5t-107 -20t-72 -54t-42.5 -88t-21 -111.5t-5.5 -136.5t5.5 -137.5t21 -113.5t42.5 -89.5
t72 -55t107 -20.5t108 20.5t75 56t46.5 90t24 114t6.5 135.5zM188 1118v33l218 274h212l218 -274v-33h-56l-268 185l-268 -185h-56z" />
    <glyph glyph-name="otilde" unicode="&#xf5;" horiz-adv-x="1024" 
d="M514 965q219 0 325.5 -127t106.5 -363q0 -495 -440 -495q-217 0 -322.5 129.5t-105.5 365.5t107.5 363t328.5 127zM766 475q0 76 -6.5 134.5t-24 112t-46.5 88t-75 55t-108 20.5t-107 -20t-72 -54t-42.5 -88t-21 -111.5t-5.5 -136.5t5.5 -137.5t21 -113.5t42.5 -89.5
t72 -55t107 -20.5t108 20.5t75 56t46.5 90t24 114t6.5 135.5zM676 1241v-2q50 0 70 28.5t28 90.5h51q-15 -242 -196 -242q-71 0 -164 70q-57 41 -70 49q-36 22 -67 22q-52 0 -71 -28t-30 -90h-51q15 241 197 241q32 0 66 -12t52 -24t48 -33q63 -45 69 -49q34 -21 68 -21z
" />
    <glyph glyph-name="odieresis" unicode="&#xf6;" horiz-adv-x="1024" 
d="M514 965q219 0 325.5 -127t106.5 -363q0 -495 -440 -495q-217 0 -322.5 129.5t-105.5 365.5t107.5 363t328.5 127zM766 475q0 76 -6.5 134.5t-24 112t-46.5 88t-75 55t-108 20.5t-107 -20t-72 -54t-42.5 -88t-21 -111.5t-5.5 -136.5t5.5 -137.5t21 -113.5t42.5 -89.5
t72 -55t107 -20.5t108 20.5t75 56t46.5 90t24 114t6.5 135.5zM688 1294q43 0 70.5 -28.5t27.5 -71.5q0 -41 -28.5 -70.5t-69.5 -29.5t-70.5 30t-29.5 70q0 43 28.5 71.5t71.5 28.5zM332 1294q43 0 70.5 -28.5t27.5 -71.5t-27.5 -71.5t-70.5 -28.5q-40 0 -70.5 30t-30.5 70
q0 41 30.5 70.5t70.5 29.5z" />
    <glyph glyph-name="divide" unicode="&#xf7;" horiz-adv-x="1122" 
d="M561 1159q40 0 68 -28t28 -68t-28 -68t-68 -28t-68 28t-28 68t28 68t68 28zM561 393q40 0 68 -28t28 -68t-28 -68t-68 -28t-68 28t-28 68t28 68t68 28zM1038 731v-102h-952v102h952z" />
    <glyph glyph-name="oslash" unicode="&#xf8;" horiz-adv-x="1024" 
d="M78 475h-4q0 236 107.5 363t328.5 127q151 0 252 -64l84 121h104l-123 -174q117 -126 117 -373q0 -495 -440 -495q-145 0 -240 59l-86 -123h-108l127 178q-119 125 -119 381zM254 475v-2q0 -157 29 -252l405 578q-63 84 -186 84q-132 0 -191 -92q-57 -89 -57 -316z
M762 473h-2q0 145 -31 240l-405 -580q58 -76 176 -76q131 0 196 99q66 101 66 317z" />
    <glyph glyph-name="ugrave" unicode="&#xf9;" horiz-adv-x="1024" 
d="M707 76h-5q-65 -36 -156 -66t-161 -30q-240 0 -240 276v614l-120 25v45h286v-672q0 -172 160 -172q122 0 234 31v743l-142 25v45h307v-870l119 -25v-45h-274zM555 1118l-354 268v37h213l196 -272v-33h-55z" />
    <glyph glyph-name="uacute" unicode="&#xfa;" horiz-adv-x="1024" 
d="M707 76h-5q-65 -36 -156 -66t-161 -30q-240 0 -240 276v614l-120 25v45h286v-672q0 -172 160 -172q122 0 234 31v743l-142 25v45h307v-870l119 -25v-45h-274zM416 1118v33l196 272h213v-37l-354 -268h-55z" />
    <glyph glyph-name="ucircumflex" unicode="&#xfb;" horiz-adv-x="1024" 
d="M707 76h-5q-65 -36 -156 -66t-161 -30q-240 0 -240 276v614l-120 25v45h286v-672q0 -172 160 -172q122 0 234 31v743l-142 25v45h307v-870l119 -25v-45h-274zM182 1118v33l217 274h213l217 -274v-33h-55l-268 185l-268 -185h-56z" />
    <glyph glyph-name="udieresis" unicode="&#xfc;" horiz-adv-x="1024" 
d="M707 76h-5q-65 -36 -156 -66t-161 -30q-240 0 -240 276v614l-120 25v45h286v-672q0 -172 160 -172q122 0 234 31v743l-142 25v45h307v-870l119 -25v-45h-274zM688 1294q43 0 70.5 -28.5t27.5 -71.5q0 -41 -28.5 -70.5t-69.5 -29.5t-70.5 30t-29.5 70q0 43 28.5 71.5
t71.5 28.5zM332 1294q43 0 70.5 -28.5t27.5 -71.5t-27.5 -71.5t-70.5 -28.5q-40 0 -70.5 30t-30.5 70q0 41 30.5 70.5t70.5 29.5z" />
    <glyph glyph-name="yacute" unicode="&#xfd;" horiz-adv-x="1024" 
d="M199 -442l-2 2q-77 0 -154 18v203h47l33 -96q33 -23 86 -23q59 0 100 32t76 87q35 54 92 209l-358 880l-96 25v45h436v-45l-148 -27l254 -657l246 659l-147 25v45h350v-45l-99 -21l-366 -933q-67 -172 -113 -238q-46 -69 -100.5 -107t-136.5 -38zM401 1120v33l197 272
h213v-36l-354 -269h-56z" />
    <glyph glyph-name="thorn" unicode="&#xfe;" horiz-adv-x="1024" 
d="M512 59h-2q59 0 103 22.5t71 59.5t43.5 93t22.5 115t6 132q0 86 -11.5 151.5t-38 118.5t-76 81t-120.5 28q-122 0 -195 -33v-751q100 -17 197 -17zM942 481v-2q0 -233 -105 -367.5t-313 -134.5q-103 0 -215 23q6 -70 6 -111v-254l164 -24v-47h-448v47l119 24v1717
l-138 24v45h303v-336q0 -56 -6 -200q42 36 112 58t144 22q97 0 170 -35.5t118 -101t67 -152.5t22 -195z" />
    <glyph glyph-name="ydieresis" unicode="&#xff;" horiz-adv-x="1024" 
d="M199 -442l-2 2q-77 0 -154 18v203h47l33 -96q33 -23 86 -23q59 0 100 32t76 87q35 54 92 209l-358 880l-96 25v45h436v-45l-148 -27l254 -657l246 659l-147 25v45h350v-45l-99 -21l-366 -933q-67 -172 -113 -238q-46 -69 -100.5 -107t-136.5 -38zM713 1296
q43 0 70.5 -28.5t27.5 -71.5q0 -41 -28.5 -70.5t-69.5 -29.5t-71 30t-30 70q0 43 29 71.5t72 28.5zM356 1296q43 0 71 -28.5t28 -71.5t-28 -71.5t-71 -28.5q-40 0 -70 30t-30 70q0 41 30 70.5t70 29.5z" />
    <glyph glyph-name="Amacron" unicode="&#x100;" horiz-adv-x="1478" 
d="M461 53v-53h-441v53l152 27l457 1272h190l475 -1272l170 -27v-53h-567v53l180 27l-133 387h-528l-135 -387zM676 1208l-230 -651h467zM424 1475v108h629v-108h-629z" />
    <glyph glyph-name="amacron" unicode="&#x101;" horiz-adv-x="907" 
d="M598 696v-2q0 93 -33.5 141t-111.5 48q-102 0 -185 -47l-35 -117h-55v205q161 34 285 34q150 0 224.5 -60t74.5 -196v-634l117 -25v-45h-258l-19 94q-115 -115 -289 -115q-241 0 -241 281q0 82 26 138.5t79 88t119.5 45t160.5 15.5l141 4v147zM381 88v-2q112 0 217 55
v334l-131 -4q-128 -3 -178.5 -46.5t-50.5 -160.5q0 -176 143 -176zM152 1137v108h628v-108h-628z" />
    <glyph glyph-name="Abreve" unicode="&#x102;" horiz-adv-x="1478" 
d="M461 53v-53h-441v53l152 27l457 1272h190l475 -1272l170 -27v-53h-567v53l180 27l-133 387h-528l-135 -387zM676 1208l-230 -651h467zM1006 1733h-2q-5 -130 -80.5 -205.5t-206.5 -75.5q-130 0 -206.5 76.5t-78.5 204.5h74q17 -67 73 -103.5t140 -36.5t140 36.5t73 103.5
h74z" />
    <glyph glyph-name="abreve" unicode="&#x103;" horiz-adv-x="907" 
d="M598 696v-2q0 93 -33.5 141t-111.5 48q-102 0 -185 -47l-35 -117h-55v205q161 34 285 34q150 0 224.5 -60t74.5 -196v-634l117 -25v-45h-258l-19 94q-115 -115 -289 -115q-241 0 -241 281q0 82 26 138.5t79 88t119.5 45t160.5 15.5l141 4v147zM381 88v-2q112 0 217 55
v334l-131 -4q-128 -3 -178.5 -46.5t-50.5 -160.5q0 -176 143 -176zM741 1395h-2q-5 -130 -80 -205.5t-206 -75.5q-130 0 -206.5 76.5t-78.5 204.5h74q17 -67 73 -103.5t140 -36.5t140 36.5t73 103.5h73z" />
    <glyph glyph-name="Aogonek" unicode="&#x104;" horiz-adv-x="1478" 
d="M461 53v-53h-441v53l152 27l457 1272h190l475 -1272l170 -27v-53h-567v53l180 27l-133 387h-528l-135 -387zM676 1208l-230 -651h467zM1112 -162q0 -72 34.5 -112.5t102.5 -40.5q56 0 117 22v-63q-68 -47 -168 -47q-109 0 -170 56t-61 161q0 108 90 202h108
q-20 -29 -36.5 -82.5t-16.5 -95.5z" />
    <glyph glyph-name="aogonek" unicode="&#x105;" horiz-adv-x="907" 
d="M598 696v-2q0 93 -33.5 141t-111.5 48q-102 0 -185 -47l-35 -117h-55v205q161 34 285 34q150 0 224.5 -60t74.5 -196v-634l117 -25v-45h-258l-19 94q-115 -115 -289 -115q-241 0 -241 281q0 82 26 138.5t79 88t119.5 45t160.5 15.5l141 4v147zM381 88v-2q112 0 217 55
v334l-131 -4q-128 -3 -178.5 -46.5t-50.5 -160.5q0 -176 143 -176zM676 -166q0 -72 34.5 -112.5t102.5 -40.5q56 0 117 22v-63q-70 -48 -168 -48q-109 0 -170.5 56.5t-61.5 161.5q0 107 91 202h108q-20 -29 -36.5 -82.5t-16.5 -95.5z" />
    <glyph glyph-name="Cacute" unicode="&#x106;" horiz-adv-x="1363" 
d="M293 657q0 -137 28 -245.5t85.5 -188.5t151 -123t218.5 -43q109 0 211 27.5t164 73.5l37 200h65l-6 -315q-212 -63 -473 -63q-324 0 -507 177.5t-183 497.5q0 346 175 523.5t519 177.5q216 0 449 -51l6 -293h-66l-30 174q-66 41 -159 65.5t-192 24.5q-109 0 -192.5 -27.5
t-140.5 -78t-93 -128t-51.5 -171.5t-15.5 -214zM612 1452v33l197 272h213v-37l-354 -268h-56z" />
    <glyph glyph-name="cacute" unicode="&#x107;" horiz-adv-x="907" 
d="M258 477h2q0 -202 76.5 -297.5t257.5 -95.5q149 0 252 33v-60q-48 -36 -135.5 -56.5t-178.5 -20.5q-456 0 -456 497q0 231 114.5 359.5t335.5 128.5q131 0 295 -31v-262h-55l-43 166q-83 47 -197 47q-268 0 -268 -408zM369 1118v33l196 272h213v-37l-354 -268h-55z" />
    <glyph glyph-name="Ccircumflex" unicode="&#x108;" horiz-adv-x="1363" 
d="M293 657q0 -137 28 -245.5t85.5 -188.5t151 -123t218.5 -43q109 0 211 27.5t164 73.5l37 200h65l-6 -315q-212 -63 -473 -63q-324 0 -507 177.5t-183 497.5q0 346 175 523.5t519 177.5q216 0 449 -51l6 -293h-66l-30 174q-66 41 -159 65.5t-192 24.5q-109 0 -192.5 -27.5
t-140.5 -78t-93 -128t-51.5 -171.5t-15.5 -214zM453 1452v33l217 274h213l217 -274v-33h-56l-268 184l-268 -184h-55z" />
    <glyph glyph-name="ccircumflex" unicode="&#x109;" horiz-adv-x="907" 
d="M258 477h2q0 -202 76.5 -297.5t257.5 -95.5q149 0 252 33v-60q-48 -36 -135.5 -56.5t-178.5 -20.5q-456 0 -456 497q0 231 114.5 359.5t335.5 128.5q131 0 295 -31v-262h-55l-43 166q-83 47 -197 47q-268 0 -268 -408zM190 1118v33l218 274h213l217 -274v-33h-56
l-268 185l-268 -185h-56z" />
    <glyph glyph-name="Cdotaccent" unicode="&#x10a;" horiz-adv-x="1363" 
d="M293 657q0 -137 28 -245.5t85.5 -188.5t151 -123t218.5 -43q109 0 211 27.5t164 73.5l37 200h65l-6 -315q-212 -63 -473 -63q-324 0 -507 177.5t-183 497.5q0 346 175 523.5t519 177.5q216 0 449 -51l6 -293h-66l-30 174q-66 41 -159 65.5t-192 24.5q-109 0 -192.5 -27.5
t-140.5 -78t-93 -128t-51.5 -171.5t-15.5 -214zM768 1690q44 0 77.5 -32.5t33.5 -76.5q0 -43 -33.5 -75.5t-77.5 -32.5q-43 0 -74.5 32t-31.5 76t31.5 76.5t74.5 32.5z" />
    <glyph glyph-name="cdotaccent" unicode="&#x10b;" horiz-adv-x="907" 
d="M258 477h2q0 -202 76.5 -297.5t257.5 -95.5q149 0 252 33v-60q-48 -36 -135.5 -56.5t-178.5 -20.5q-456 0 -456 497q0 231 114.5 359.5t335.5 128.5q131 0 295 -31v-262h-55l-43 166q-83 47 -197 47q-268 0 -268 -408zM530 1356q44 0 77.5 -32.5t33.5 -76.5
q0 -43 -33.5 -75.5t-77.5 -32.5q-43 0 -74.5 32t-31.5 76t31.5 76.5t74.5 32.5z" />
    <glyph glyph-name="Ccaron" unicode="&#x10c;" horiz-adv-x="1363" 
d="M293 657q0 -137 28 -245.5t85.5 -188.5t151 -123t218.5 -43q109 0 211 27.5t164 73.5l37 200h65l-6 -315q-212 -63 -473 -63q-324 0 -507 177.5t-183 497.5q0 346 175 523.5t519 177.5q216 0 449 -51l6 -293h-66l-30 174q-66 41 -159 65.5t-192 24.5q-109 0 -192.5 -27.5
t-140.5 -78t-93 -128t-51.5 -171.5t-15.5 -214zM504 1759l268 -184l268 184h56v-33l-217 -274h-213l-217 274v33h55z" />
    <glyph glyph-name="ccaron" unicode="&#x10d;" horiz-adv-x="907" 
d="M258 477h2q0 -202 76.5 -297.5t257.5 -95.5q149 0 252 33v-60q-48 -36 -135.5 -56.5t-178.5 -20.5q-456 0 -456 497q0 231 114.5 359.5t335.5 128.5q131 0 295 -31v-262h-55l-43 166q-83 47 -197 47q-268 0 -268 -408zM252 1425l268 -184l268 184h56v-32l-217 -275h-213
l-217 275v32h55z" />
    <glyph glyph-name="Dcaron" unicode="&#x10e;" horiz-adv-x="1478" 
d="M709 86h2q131 0 224 39.5t148.5 118t81 185.5t25.5 251q0 279 -151 425t-433 146h-180v-1157q107 -8 283 -8zM1399 678q0 -339 -173 -510.5t-515 -171.5l-478 4h-172v53l172 27v1182l-172 26v53h609q361 0 545 -161.5t184 -501.5zM463 1759l268 -184l268 184h56v-33
l-217 -274h-213l-217 274v33h55z" />
    <glyph glyph-name="dcaron" unicode="&#x10f;" horiz-adv-x="1323" 
d="M74 461q0 240 106 372t324 132q97 0 219 -23q-6 35 -6 166v244l-158 24v45h324v-1351l116 -25v-45h-264l-12 70q-116 -90 -264 -90q-385 0 -385 481zM254 461q0 -86 12.5 -152t41.5 -118t81 -79.5t125 -27.5q118 0 203 39v743q-100 17 -203 17q-260 0 -260 -422z
M1171 1423l-2 -4q54 0 85.5 -41t31.5 -102q0 -107 -72 -176q-71 -68 -233 -105v64q125 27 168 80q18 24 18 63q0 8 -2.5 14.5t-9.5 14t-10.5 10.5t-13.5 10.5t-11 8.5q-47 34 -47 83q0 38 27.5 59t70.5 21z" />
    <glyph glyph-name="Dcroat" unicode="&#x110;" horiz-adv-x="1478" 
d="M1397 678q0 -342 -164 -512t-500 -170l-502 4h-172v53l172 27v549h-178v82h178v551l-172 26v53h572q366 0 566 -164.5t200 -498.5zM1188 670h2q0 293 -150.5 437t-451.5 144h-162v-540h377v-82h-377v-535q107 -8 283 -8q258 0 368.5 145.5t110.5 438.5z" />
    <glyph glyph-name="dcroat" unicode="&#x111;" horiz-adv-x="1024" 
d="M74 461v-2q0 240 106 372t324 132q97 0 219 -23q-6 35 -6 147v25h-275v84h275v156l-158 24v45h324v-225h137v-84h-137v-1042l116 -25v-45h-264l-12 70q-116 -90 -264 -90q-385 0 -385 481zM254 459q0 -86 12.5 -152t41.5 -118t81 -79.5t125 -27.5q118 0 203 39v743
q-100 17 -203 17q-260 0 -260 -422z" />
    <glyph glyph-name="Emacron" unicode="&#x112;" horiz-adv-x="1249" 
d="M59 53l174 27v1182l-172 26v53h1006v-321h-66l-32 217q-106 14 -326 14h-219v-524h362l31 160h64v-412h-64l-31 162h-362v-547h264q253 0 338 16l57 248h66l-19 -354h-1071v53zM313 1475v108h629v-108h-629z" />
    <glyph glyph-name="emacron" unicode="&#x113;" horiz-adv-x="907" 
d="M80 477h2q0 232 96.5 360t300.5 128q361 0 361 -410v-82h-578v-18q0 -184 65.5 -277.5t225.5 -93.5q48 0 125.5 9.5t122.5 19.5v-56q-49 -32 -134 -54.5t-165 -22.5q-228 0 -325 121.5t-97 375.5zM479 885v-2q-215 0 -215 -332h402q0 182 -45 256q-47 78 -142 78z
M164 1139v108h629v-108h-629z" />
    <glyph glyph-name="Ebreve" unicode="&#x114;" horiz-adv-x="1249" 
d="M59 53l174 27v1182l-172 26v53h1006v-321h-66l-32 217q-106 14 -326 14h-219v-524h362l31 160h64v-412h-64l-31 162h-362v-547h264q253 0 338 16l57 248h66l-19 -354h-1071v53zM913 1733h-2q-5 -130 -80 -205.5t-206 -75.5q-130 0 -206.5 76.5t-78.5 204.5h74
q17 -67 73 -103.5t140 -36.5t140 36.5t73 103.5h73z" />
    <glyph glyph-name="ebreve" unicode="&#x115;" horiz-adv-x="907" 
d="M80 477h2q0 232 96.5 360t300.5 128q361 0 361 -410v-82h-578v-18q0 -184 65.5 -277.5t225.5 -93.5q48 0 125.5 9.5t122.5 19.5v-56q-49 -32 -134 -54.5t-165 -22.5q-228 0 -325 121.5t-97 375.5zM479 885v-2q-215 0 -215 -332h402q0 182 -45 256q-47 78 -142 78z
M756 1397h-2q-5 -130 -80.5 -205.5t-206.5 -75.5q-130 0 -206.5 76.5t-78.5 204.5h74q17 -67 73 -103.5t140 -36.5t140 36.5t73 103.5h74z" />
    <glyph glyph-name="Edotaccent" unicode="&#x116;" horiz-adv-x="1249" 
d="M59 53l174 27v1182l-172 26v53h1006v-321h-66l-32 217q-106 14 -326 14h-219v-524h362l31 160h64v-412h-64l-31 162h-362v-547h264q253 0 338 16l57 248h66l-19 -354h-1071v53zM637 1690q44 0 77.5 -32.5t33.5 -76.5q0 -43 -33.5 -75.5t-77.5 -32.5q-43 0 -75 32t-32 76
t32 76.5t75 32.5z" />
    <glyph glyph-name="edotaccent" unicode="&#x117;" horiz-adv-x="907" 
d="M80 477h2q0 232 96.5 360t300.5 128q361 0 361 -410v-82h-578v-18q0 -184 65.5 -277.5t225.5 -93.5q48 0 125.5 9.5t122.5 19.5v-56q-49 -32 -134 -54.5t-165 -22.5q-228 0 -325 121.5t-97 375.5zM479 885v-2q-215 0 -215 -332h402q0 182 -45 256q-47 78 -142 78z
M473 1354q44 0 77.5 -32.5t33.5 -76.5q0 -43 -33.5 -75.5t-77.5 -32.5q-43 0 -74.5 32t-31.5 76t31.5 76.5t74.5 32.5z" />
    <glyph glyph-name="Eogonek" unicode="&#x118;" horiz-adv-x="1249" 
d="M59 53l174 27v1182l-172 26v53h1006v-321h-66l-32 217q-106 14 -326 14h-219v-524h362l31 160h64v-412h-64l-31 162h-362v-547h264q253 0 338 16l57 248h66l-19 -354h-1071v53zM872 -162q0 -72 35 -112.5t103 -40.5q55 0 116 22v-63q-68 -47 -168 -47q-109 0 -170 56
t-61 161q0 108 90 202h109q-20 -30 -37 -83t-17 -95z" />
    <glyph glyph-name="eogonek" unicode="&#x119;" horiz-adv-x="907" 
d="M80 477h2q0 232 96.5 360t300.5 128q361 0 361 -410v-82h-578v-18q0 -184 65.5 -277.5t225.5 -93.5q48 0 125.5 9.5t122.5 19.5v-56q-49 -32 -134 -54.5t-165 -22.5q-228 0 -325 121.5t-97 375.5zM479 885v-2q-215 0 -215 -332h402q0 182 -45 256q-47 78 -142 78z
M567 -164q0 -72 35 -112.5t103 -40.5q55 0 116 22v-63q-70 -48 -168 -48q-108 0 -169.5 56.5t-61.5 161.5q0 108 90 202h109q-20 -30 -37 -83t-17 -95z" />
    <glyph glyph-name="Ecaron" unicode="&#x11a;" horiz-adv-x="1249" 
d="M59 53l174 27v1182l-172 26v53h1006v-321h-66l-32 217q-106 14 -326 14h-219v-524h362l31 160h64v-412h-64l-31 162h-362v-547h264q253 0 338 16l57 248h66l-19 -354h-1071v53zM369 1759l268 -184l268 184h56v-33l-218 -274h-213l-217 274v33h56z" />
    <glyph glyph-name="ecaron" unicode="&#x11b;" horiz-adv-x="907" 
d="M80 477h2q0 232 96.5 360t300.5 128q361 0 361 -410v-82h-578v-18q0 -184 65.5 -277.5t225.5 -93.5q48 0 125.5 9.5t122.5 19.5v-56q-49 -32 -134 -54.5t-165 -22.5q-228 0 -325 121.5t-97 375.5zM479 885v-2q-215 0 -215 -332h402q0 182 -45 256q-47 78 -142 78z
M213 1423l268 -184l269 184h55v-32l-217 -275h-213l-217 275v32h55z" />
    <glyph glyph-name="Gcircumflex" unicode="&#x11c;" horiz-adv-x="1478" 
d="M776 57h-2q81 0 176.5 20t141.5 48v381l-172 26v54h495v-54l-131 -26v-436q-268 -90 -510 -90q-326 0 -508 176.5t-182 498.5q0 349 174 525t520 176q237 0 471 -60v-288h-67l-27 166q-68 47 -164.5 74.5t-204.5 27.5q-136 0 -232.5 -42t-153 -124t-82 -193t-25.5 -260
q0 -139 27.5 -247t84.5 -188t150.5 -122.5t220.5 -42.5zM449 1452v33l217 274h213l217 -274v-33h-56l-268 184l-268 -184h-55z" />
    <glyph glyph-name="gcircumflex" unicode="&#x11d;" horiz-adv-x="1024" 
d="M502 965h2q36 0 97 -8t87 -17l221 111l35 -43l-139 -144q67 -76 67 -221q0 -165 -99 -246.5t-277 -81.5q-84 0 -154 15l-63 -131q3 -22 45 -34.5t84 -12.5h278q141 0 220 -61.5t79 -186.5q0 -215 -231 -303q-113 -43 -273 -43q-192 0 -295 59q-100 57 -100 166
q0 52 37 104q36 51 133 123q-54 16 -94.5 61.5t-40.5 102.5l158 178q-158 74 -158 291q0 160 102 241t279 81zM483 -362q73 0 134 13t110 40t76.5 73.5t27.5 108.5q0 121 -141 121h-364q-38 -33 -66.5 -87t-28.5 -108q0 -39 12.5 -68t34 -46.5t54.5 -28t68.5 -14.5t82.5 -4z
M297 643q0 -126 45.5 -189t155.5 -63q111 0 155.5 62.5t44.5 189.5t-43.5 186.5t-154.5 59.5q-110 0 -156.5 -60.5t-46.5 -185.5zM190 1118v33l218 274h213l217 -274v-33h-56l-268 185l-268 -185h-56z" />
    <glyph glyph-name="Gbreve" unicode="&#x11e;" horiz-adv-x="1478" 
d="M776 57h-2q81 0 176.5 20t141.5 48v381l-172 26v54h495v-54l-131 -26v-436q-268 -90 -510 -90q-326 0 -508 176.5t-182 498.5q0 349 174 525t520 176q237 0 471 -60v-288h-67l-27 166q-68 47 -164.5 74.5t-204.5 27.5q-136 0 -232.5 -42t-153 -124t-82 -193t-25.5 -260
q0 -139 27.5 -247t84.5 -188t150.5 -122.5t220.5 -42.5zM1053 1733h-2q-5 -130 -80.5 -205.5t-206.5 -75.5q-130 0 -206.5 76.5t-78.5 204.5h74q17 -67 73 -103.5t140 -36.5t140 36.5t73 103.5h74z" />
    <glyph glyph-name="gbreve" unicode="&#x11f;" horiz-adv-x="1024" 
d="M502 965h2q36 0 97 -8t87 -17l221 111l35 -43l-139 -144q67 -76 67 -221q0 -165 -99 -246.5t-277 -81.5q-84 0 -154 15l-63 -131q3 -22 45 -34.5t84 -12.5h278q141 0 220 -61.5t79 -186.5q0 -215 -231 -303q-113 -43 -273 -43q-192 0 -295 59q-100 57 -100 166
q0 52 37 104q36 51 133 123q-54 16 -94.5 61.5t-40.5 102.5l158 178q-158 74 -158 291q0 160 102 241t279 81zM483 -362q73 0 134 13t110 40t76.5 73.5t27.5 108.5q0 121 -141 121h-364q-38 -33 -66.5 -87t-28.5 -108q0 -39 12.5 -68t34 -46.5t54.5 -28t68.5 -14.5t82.5 -4z
M297 643q0 -126 45.5 -189t155.5 -63q111 0 155.5 62.5t44.5 189.5t-43.5 186.5t-154.5 59.5q-110 0 -156.5 -60.5t-46.5 -185.5zM772 1399h-2q-5 -130 -80.5 -205.5t-206.5 -75.5q-130 0 -206 76.5t-78 204.5h73q17 -67 73 -103t140 -36t140 36t73 103h74z" />
    <glyph glyph-name="Gdotaccent" unicode="&#x120;" horiz-adv-x="1478" 
d="M776 57h-2q81 0 176.5 20t141.5 48v381l-172 26v54h495v-54l-131 -26v-436q-268 -90 -510 -90q-326 0 -508 176.5t-182 498.5q0 349 174 525t520 176q237 0 471 -60v-288h-67l-27 166q-68 47 -164.5 74.5t-204.5 27.5q-136 0 -232.5 -42t-153 -124t-82 -193t-25.5 -260
q0 -139 27.5 -247t84.5 -188t150.5 -122.5t220.5 -42.5zM772 1690q44 0 77.5 -32.5t33.5 -76.5q0 -43 -33.5 -75.5t-77.5 -32.5q-43 0 -74.5 32t-31.5 76t31.5 76.5t74.5 32.5z" />
    <glyph glyph-name="gdotaccent" unicode="&#x121;" horiz-adv-x="1024" 
d="M502 965h2q36 0 97 -8t87 -17l221 111l35 -43l-139 -144q67 -76 67 -221q0 -165 -99 -246.5t-277 -81.5q-84 0 -154 15l-63 -131q3 -22 45 -34.5t84 -12.5h278q141 0 220 -61.5t79 -186.5q0 -215 -231 -303q-113 -43 -273 -43q-192 0 -295 59q-100 57 -100 166
q0 52 37 104q36 51 133 123q-54 16 -94.5 61.5t-40.5 102.5l158 178q-158 74 -158 291q0 160 102 241t279 81zM483 -362q73 0 134 13t110 40t76.5 73.5t27.5 108.5q0 121 -141 121h-364q-38 -33 -66.5 -87t-28.5 -108q0 -39 12.5 -68t34 -46.5t54.5 -28t68.5 -14.5t82.5 -4z
M297 643q0 -126 45.5 -189t155.5 -63q111 0 155.5 62.5t44.5 189.5t-43.5 186.5t-154.5 59.5q-110 0 -156.5 -60.5t-46.5 -185.5zM496 1356q44 0 77 -32.5t33 -76.5q0 -43 -33 -75.5t-77 -32.5q-43 0 -75 32t-32 76t32 76.5t75 32.5z" />
    <glyph glyph-name="Gcedilla" unicode="&#x122;" horiz-adv-x="1478" 
d="M776 57h-2q81 0 176.5 20t141.5 48v381l-172 26v54h495v-54l-131 -26v-436q-268 -90 -510 -90q-326 0 -508 176.5t-182 498.5q0 349 174 525t520 176q237 0 471 -60v-288h-67l-27 166q-68 47 -164.5 74.5t-204.5 27.5q-136 0 -232.5 -42t-153 -124t-82 -193t-25.5 -260
q0 -139 27.5 -247t84.5 -188t150.5 -122.5t220.5 -42.5zM754 -70h-2q52 0 84 -39.5t32 -95.5q0 -89 -49 -141q-50 -53 -174 -90v63q121 38 121 88q0 6 -1.5 11.5t-3.5 9.5t-6.5 8.5l-7 7t-9 6.5t-9 5.5t-10 5t-8.5 4.5q-27 13 -41.5 29.5t-14.5 45.5q0 38 28 60t71 22z" />
    <glyph glyph-name="gcedilla" unicode="&#x123;" horiz-adv-x="1024" 
d="M502 965h2q36 0 97 -8t87 -17l221 111l35 -43l-139 -144q67 -76 67 -221q0 -165 -99 -246.5t-277 -81.5q-84 0 -154 15l-63 -131q3 -22 45 -34.5t84 -12.5h278q141 0 220 -61.5t79 -186.5q0 -215 -231 -303q-113 -43 -273 -43q-192 0 -295 59q-100 57 -100 166
q0 52 37 104q36 51 133 123q-54 16 -94.5 61.5t-40.5 102.5l158 178q-158 74 -158 291q0 160 102 241t279 81zM483 -362q73 0 134 13t110 40t76.5 73.5t27.5 108.5q0 121 -141 121h-364q-38 -33 -66.5 -87t-28.5 -108q0 -39 12.5 -68t34 -46.5t54.5 -28t68.5 -14.5t82.5 -4z
M297 643q0 -126 45.5 -189t155.5 -63q111 0 155.5 62.5t44.5 189.5t-43.5 186.5t-154.5 59.5q-110 0 -156.5 -60.5t-46.5 -185.5zM506 1120v2q-52 0 -84.5 39.5t-32.5 95.5q0 90 49 142t176 90v-64q-120 -37 -120 -88q0 -7 1.5 -13t5.5 -11t7 -8.5t10 -7.5t10 -6t11 -6
l10 -5q26 -13 40.5 -30t14.5 -48q0 -39 -27.5 -60.5t-70.5 -21.5z" />
    <glyph glyph-name="Hcircumflex" unicode="&#x124;" horiz-adv-x="1478" 
d="M59 0v53l172 27v1182l-172 26v53h537v-53l-172 -26v-527h631v527l-172 26v53h536v-53l-172 -26v-1182l172 -27v-53h-536v53l172 27v565h-631v-565l172 -27v-53h-537zM416 1452v33l217 274h213l217 -274v-33h-55l-269 184l-268 -184h-55z" />
    <glyph glyph-name="hcircumflex" unicode="&#x125;" horiz-adv-x="1024" 
d="M637 965h2q246 0 246 -277v-618l114 -25v-45h-405v45l125 25v606q0 172 -166 172q-85 0 -227 -29v-749l127 -25v-45h-412v45l119 25v1282l-140 24v45h306v-407q0 -96 -7 -150q66 38 156.5 69.5t161.5 31.5zM188 1493v33l218 274h212l218 -274v-33h-56l-268 184l-268 -184
h-56z" />
    <glyph glyph-name="Hbar" unicode="&#x126;" horiz-adv-x="1478" 
d="M59 0v53l172 27v876h-172v82h172v224l-172 26v53h537v-53l-172 -26v-224h631v224l-172 26v53h536v-53l-172 -26v-224h172v-82h-172v-876l172 -27v-53h-536v53l172 27v565h-631v-565l172 -27v-53h-537zM1055 735v221h-631v-221h631z" />
    <glyph glyph-name="hbar" unicode="&#x127;" horiz-adv-x="1024" 
d="M637 965h2q246 0 246 -277v-618l114 -25v-45h-405v45l125 25v606q0 172 -166 172q-85 0 -227 -29v-749l127 -25v-45h-412v45l119 25v1042h-137v84h137v156l-140 24v45h306v-225h274v-84h-274v-98q0 -96 -7 -150q66 38 156.5 69.5t161.5 31.5z" />
    <glyph glyph-name="Itilde" unicode="&#x128;" horiz-adv-x="681" 
d="M438 80l172 -27v-53h-536v53l172 27v1182l-172 26v53h536v-53l-172 -26v-1182zM514 1575v-2q50 0 70 28.5t28 90.5h52q-15 -242 -197 -242q-71 0 -164 70q-57 41 -70 49q-36 22 -67 22q-28 0 -46 -7.5t-28.5 -26t-15.5 -36t-10 -48.5h-52q15 241 197 241q32 0 66 -12
t52 -24t48 -33q9 -6 23 -17t25 -19t21 -14q33 -20 68 -20z" />
    <glyph glyph-name="itilde" unicode="&#x129;" horiz-adv-x="567" 
d="M369 70l161 -25v-45h-487v45l160 25v800l-133 25v45h299v-870zM459 1241v-2q50 0 70 28.5t28 90.5h51q-15 -242 -196 -242q-71 0 -164 70q-57 41 -70 49q-36 22 -67 22q-52 0 -71 -28t-30 -90h-51q15 241 197 241q32 0 66 -12t52 -24t48 -33q63 -45 69 -49q35 -21 68 -21
z" />
    <glyph glyph-name="Imacron" unicode="&#x12a;" horiz-adv-x="681" 
d="M438 80l172 -27v-53h-536v53l172 27v1182l-172 26v53h536v-53l-172 -26v-1182zM27 1475v108h628v-108h-628z" />
    <glyph glyph-name="imacron" unicode="&#x12b;" horiz-adv-x="567" 
d="M369 70l161 -25v-45h-487v45l160 25v800l-133 25v45h299v-870zM-29 1141v108h629v-108h-629z" />
    <glyph glyph-name="Ibreve" unicode="&#x12c;" horiz-adv-x="681" 
d="M438 80l172 -27v-53h-536v53l172 27v1182l-172 26v53h536v-53l-172 -26v-1182zM627 1733h-2q-5 -130 -80.5 -205.5t-206.5 -75.5q-130 0 -206.5 76.5t-78.5 204.5h74q17 -67 73 -103.5t140 -36.5t140 36.5t73 103.5h74z" />
    <glyph glyph-name="ibreve" unicode="&#x12d;" horiz-adv-x="567" 
d="M369 70l161 -25v-45h-487v45l160 25v800l-133 25v45h299v-870zM573 1399h-2q-5 -130 -80 -205.5t-206 -75.5q-130 0 -206.5 76.5t-78.5 204.5h74q17 -67 73 -103t140 -36t140 36t73 103h73z" />
    <glyph glyph-name="Iogonek" unicode="&#x12e;" horiz-adv-x="681" 
d="M438 80l172 -27v-53h-536v53l172 27v1182l-172 26v53h536v-53l-172 -26v-1182zM346 -162q0 -72 34.5 -112.5t102.5 -40.5q56 0 117 22v-63q-68 -47 -168 -47q-109 0 -170 56t-61 161q0 108 90 202h108q-20 -29 -36.5 -82.5t-16.5 -95.5z" />
    <glyph glyph-name="iogonek" unicode="&#x12f;" horiz-adv-x="567" 
d="M270 1356q44 0 76.5 -32.5t32.5 -76.5q0 -43 -32.5 -75.5t-76.5 -32.5q-43 0 -75.5 32t-32.5 76t32 76.5t76 32.5zM369 70l161 -25v-45h-487v45l160 25v800l-133 25v45h299v-870zM279 -162q0 -72 34.5 -112.5t102.5 -40.5q55 0 116 22v-63q-68 -47 -167 -47
q-109 0 -170.5 56.5t-61.5 160.5q0 108 90 202h109q-20 -29 -36.5 -82.5t-16.5 -95.5z" />
    <glyph glyph-name="Idotaccent" unicode="&#x130;" horiz-adv-x="681" 
d="M438 80l172 -27v-53h-536v53l172 27v1182l-172 26v53h536v-53l-172 -26v-1182zM342 1690q44 0 77.5 -32.5t33.5 -76.5q0 -43 -33.5 -75.5t-77.5 -32.5q-43 0 -74.5 32t-31.5 76t31.5 76.5t74.5 32.5z" />
    <glyph glyph-name="dotlessi" unicode="&#x131;" horiz-adv-x="567" 
d="M369 70l161 -25v-45h-487v45l160 25v800l-133 25v45h299v-870z" />
    <glyph glyph-name="IJ" unicode="&#x132;" horiz-adv-x="1449" 
d="M438 80l172 -27v-53h-536v53l172 27v1182l-172 26v53h536v-53l-172 -26v-1182zM1063 1262l-174 26v53h516v-53l-152 -26v-830q0 -279 -166 -395q-80 -57 -184 -57q-128 0 -207 30v244h66l31 -139q40 -49 131 -49q139 0 139 190v1006z" />
    <glyph glyph-name="ij" unicode="&#x133;" horiz-adv-x="1130" 
d="M270 1356q44 0 76.5 -32.5t32.5 -76.5q0 -43 -32.5 -75.5t-76.5 -32.5q-43 0 -75.5 32t-32.5 76t32 76.5t76 32.5zM369 70l161 -25v-45h-487v45l160 25v800l-133 25v45h299v-870zM846 1356q43 0 75.5 -32.5t32.5 -76.5q0 -43 -32 -75.5t-76 -32.5t-76.5 32t-32.5 76
t32.5 76.5t76.5 32.5zM944 -39h-4q0 -184 -71.5 -290.5t-225.5 -106.5q-63 0 -145 18v199h47l26 -109q36 -28 86 -28q62 0 91 63q30 65 30 203v960l-141 25v45h307v-979z" />
    <glyph glyph-name="Jcircumflex" unicode="&#x134;" horiz-adv-x="796" 
d="M410 1262l-174 26v53h516v-53l-152 -26v-830q0 -279 -166 -395q-80 -57 -184 -57q-127 0 -207 30v244h66l30 -139q40 -49 131 -49q140 0 140 190v1006zM178 1452v33l217 274h213l217 -274v-33h-55l-268 184l-269 -184h-55z" />
    <glyph glyph-name="jcircumflex" unicode="&#x135;" horiz-adv-x="567" 
d="M383 -39h-4q0 -184 -71.5 -290.5t-225.5 -106.5q-62 0 -145 18v199h47l26 -109q36 -28 86 -28q61 0 90 63q31 67 31 203v960l-141 25v45h307v-979zM-43 1118v33l217 274h213l217 -274v-33h-55l-268 185l-269 -185h-55z" />
    <glyph glyph-name="Kcedilla" unicode="&#x136;" horiz-adv-x="1478" 
d="M1354 1341v-53l-156 -26l-459 -449l574 -733l145 -27v-53h-328l-526 678l-180 -146v-452l192 -27v-53h-557v53l172 27v1182l-172 26v53h537v-53l-172 -26v-631l643 631l-133 26v53h420zM762 -70h-2q52 0 84.5 -39.5t32.5 -95.5q0 -88 -50 -141t-174 -90v63q121 38 121 88
q0 6 -1.5 11.5t-3.5 9.5t-6.5 8.5l-7 7t-9 6.5t-9 5.5t-10 5t-8.5 4.5q-26 13 -40.5 29.5t-14.5 45.5q0 39 27.5 60.5t70.5 21.5z" />
    <glyph glyph-name="kcedilla" unicode="&#x137;" horiz-adv-x="1024" 
d="M344 453l385 415l-98 27v45h332v-45l-117 -23l-268 -274l344 -530l102 -23v-45h-385v45l86 25l-258 405l-123 -135v-270l100 -25v-45h-385v45l119 25v1282l-139 24v45h305v-968zM508 -70h-2q52 0 84.5 -39.5t32.5 -95.5q0 -88 -50 -141t-174 -90v63q121 38 121 88
q0 6 -1.5 11.5t-3.5 9.5t-6.5 8.5l-7 7t-9 6.5t-9 5.5t-10 5t-8.5 4.5q-26 13 -40.5 29.5t-14.5 45.5q0 39 27.5 60.5t70.5 21.5z" />
    <glyph glyph-name="kgreenlandic" unicode="&#x138;" horiz-adv-x="1024" 
d="M344 453l385 415l-98 27v45h332v-45l-117 -23l-268 -274l344 -530l102 -23v-45h-385v45l86 25l-258 405l-123 -135v-270l100 -25v-45h-385v45l119 25v800l-139 25v45h305v-487z" />
    <glyph glyph-name="Lacute" unicode="&#x139;" horiz-adv-x="1249" 
d="M631 1288l-207 -26v-1176h264q216 0 313 20l62 279h65l-18 -385h-1051v53l172 27v1182l-172 26v53h572v-53zM293 1452v33l196 272h213v-37l-354 -268h-55z" />
    <glyph glyph-name="lacute" unicode="&#x13a;" horiz-adv-x="567" 
d="M367 70l161 -25v-45h-487v45l160 25v1282l-160 24v45h326v-1351zM152 1493v33l196 272h213v-37l-354 -268h-55z" />
    <glyph glyph-name="Lcedilla" unicode="&#x13b;" horiz-adv-x="1249" 
d="M631 1288l-207 -26v-1176h264q216 0 313 20l62 279h65l-18 -385h-1051v53l172 27v1182l-172 26v53h572v-53zM618 -70h-2q52 0 84.5 -39.5t32.5 -95.5q0 -89 -49 -141q-50 -53 -174 -90v63q121 38 121 88q0 7 -1.5 13t-6 11t-7 8.5t-10 8l-10 6t-11.5 6.5t-10 5
q-26 13 -40.5 29.5t-14.5 45.5q0 39 27.5 60.5t70.5 21.5z" />
    <glyph glyph-name="lcedilla" unicode="&#x13c;" horiz-adv-x="567" 
d="M367 70l161 -25v-45h-487v45l160 25v1282l-160 24v45h326v-1351zM274 -70h-2q52 0 84.5 -39.5t32.5 -95.5q0 -89 -49 -141q-50 -53 -174 -90v63q121 38 121 88q0 7 -1.5 13t-6 11t-7 8.5t-10 8l-10 6t-11.5 6.5t-10 5q-26 13 -40.5 29.5t-14.5 45.5q0 39 27.5 60.5
t70.5 21.5z" />
    <glyph glyph-name="Lcaron" unicode="&#x13d;" horiz-adv-x="1249" 
d="M631 1288l-207 -26v-1176h264q216 0 313 20l62 279h65l-18 -385h-1051v53l172 27v1182l-172 26v53h572v-53zM969 1341l-2 -4q54 0 85 -41t31 -102q0 -108 -71 -176q-70 -68 -234 -105v64q125 27 168 80q19 25 19 63q0 8 -2.5 14.5t-9.5 14t-10.5 10.5t-13.5 10.5t-11 8.5
q-48 35 -48 84q0 38 28 58.5t71 20.5z" />
    <glyph glyph-name="lcaron" unicode="&#x13e;" horiz-adv-x="831" 
d="M397 70l162 -25v-45h-487v45l159 25v1282l-159 24v45h325v-1351zM680 1423l-2 -4q54 0 85.5 -41t31.5 -102q0 -107 -72 -176q-71 -68 -234 -105v64q125 27 168 80q19 25 19 63q0 8 -2.5 14.5t-9.5 14t-10.5 10.5t-13.5 10.5t-11 8.5q-47 34 -47 83q0 38 27.5 59t70.5 21z
" />
    <glyph glyph-name="Ldot" unicode="&#x13f;" horiz-adv-x="1249" 
d="M631 1288l-207 -26v-1176h264q216 0 313 20l62 279h65l-18 -385h-1051v53l172 27v1182l-172 26v53h572v-53zM809 842q44 0 77.5 -32.5t33.5 -76.5q0 -43 -33.5 -75.5t-77.5 -32.5q-43 0 -75 32t-32 76t32 76.5t75 32.5z" />
    <glyph glyph-name="ldot" unicode="&#x140;" horiz-adv-x="702" 
d="M367 70l161 -25v-45h-487v45l160 25v1282l-160 24v45h326v-1351zM586 842q44 0 77 -32.5t33 -76.5q0 -43 -33 -75.5t-77 -32.5q-43 0 -75 32t-32 76t32 76.5t75 32.5z" />
    <glyph glyph-name="Lslash" unicode="&#x141;" horiz-adv-x="1249" 
d="M43 518l188 109v635l-172 26v53h572v-53l-207 -26v-525l307 178v-94l-307 -178v-557h264q216 0 313 20l62 279h65l-18 -385h-1051v53l172 27v452l-188 -110v96z" />
    <glyph glyph-name="lslash" unicode="&#x142;" horiz-adv-x="567" 
d="M20 518l181 103v731l-160 24v45h326v-704l192 112v-94l-192 -112v-553l161 -25v-45h-487v45l160 25v456l-181 -104v96z" />
    <glyph glyph-name="Nacute" unicode="&#x143;" horiz-adv-x="1478" 
d="M1155 1262l-180 26v53h457v-53l-172 -26v-1262h-97l-827 1206v-1126l180 -27v-53h-457v53l172 27v1182l-172 26v53h406l690 -993v914zM659 1452v33l197 272h213v-37l-354 -268h-56z" />
    <glyph glyph-name="nacute" unicode="&#x144;" horiz-adv-x="1024" 
d="M713 670q0 178 -166 178q-79 0 -221 -29v-749l127 -25v-45h-406v45l113 25v800l-113 25v45h268l9 -76q183 101 309 101q246 0 246 -277v-618l114 -25v-45h-405v45l125 25v600zM412 1118v33l196 272h213v-37l-354 -268h-55z" />
    <glyph glyph-name="Ncedilla" unicode="&#x145;" horiz-adv-x="1478" 
d="M1155 1262l-180 26v53h457v-53l-172 -26v-1262h-97l-827 1206v-1126l180 -27v-53h-457v53l172 27v1182l-172 26v53h406l690 -993v914zM715 -70h-2q52 0 84 -39.5t32 -95.5q0 -89 -49 -141q-50 -53 -174 -90v63q121 38 121 88q0 6 -1.5 11.5t-3.5 9.5t-6.5 8.5l-7 7
t-9 6.5t-9 5.5t-10 5t-8.5 4.5q-27 13 -41.5 29.5t-14.5 45.5q0 38 28 60t71 22z" />
    <glyph glyph-name="ncedilla" unicode="&#x146;" horiz-adv-x="1024" 
d="M713 670q0 178 -166 178q-79 0 -221 -29v-749l127 -25v-45h-406v45l113 25v800l-113 25v45h268l9 -76q183 101 309 101q246 0 246 -277v-618l114 -25v-45h-405v45l125 25v600zM498 -70h-2q52 0 84 -39.5t32 -95.5q0 -89 -49 -141q-50 -53 -174 -90v63q121 38 121 88
q0 6 -1.5 11.5t-3.5 9.5t-6.5 8.5l-7 7t-9 6.5t-9 5.5t-10 5t-8.5 4.5q-27 13 -41.5 29.5t-14.5 45.5q0 38 28 60t71 22z" />
    <glyph glyph-name="Ncaron" unicode="&#x147;" horiz-adv-x="1478" 
d="M1155 1262l-180 26v53h457v-53l-172 -26v-1262h-97l-827 1206v-1126l180 -27v-53h-457v53l172 27v1182l-172 26v53h406l690 -993v914zM471 1759l268 -184l269 184h55v-33l-217 -274h-213l-217 274v33h55z" />
    <glyph glyph-name="ncaron" unicode="&#x148;" horiz-adv-x="1024" 
d="M713 670q0 178 -166 178q-79 0 -221 -29v-749l127 -25v-45h-406v45l113 25v800l-113 25v45h268l9 -76q183 101 309 101q246 0 246 -277v-618l114 -25v-45h-405v45l125 25v600zM246 1425l268 -184l268 184h56v-32l-217 -275h-213l-218 275v32h56z" />
    <glyph glyph-name="napostrophe" unicode="&#x149;" horiz-adv-x="1236" 
d="M922 670q0 178 -166 178q-79 0 -221 -29v-749l127 -25v-45h-406v45l113 25v800l-113 25v45h268l8 -76q183 101 310 101q245 0 245 -277v-618l115 -25v-45h-405v45l125 25v600zM164 1421v2q65 0 104 -45.5t39 -115.5q0 -145 -83 -234t-222 -131v78q176 56 176 168
q0 7 -2 13.5t-3.5 11t-7 10l-8 8t-10.5 7.5t-10.5 6t-13 6.5t-12.5 6.5q-68 35 -68 99q0 53 33.5 81.5t87.5 28.5z" />
    <glyph glyph-name="Eng" unicode="&#x14a;" horiz-adv-x="1435" 
d="M913 1352q196 0 281.5 -94.5t85.5 -299.5v-526q0 -279 -166 -395q-80 -57 -184 -57q-128 0 -207 30v244h65l29 -139q19 -22 55 -35.5t76 -13.5q142 0 142 190v694q0 142 -59.5 211.5t-192.5 69.5q-178 0 -414 -117v-1034l172 -27v-53h-537v53l172 27v1182l-172 26v53h363
l2 -141q109 62 241 107t248 45z" />
    <glyph glyph-name="eng" unicode="&#x14b;" horiz-adv-x="1011" 
d="M608 965h-4q116 0 170.5 -73t54.5 -204v-727q0 -184 -71.5 -290.5t-225.5 -106.5q-62 0 -145 18v199h47l27 -109q36 -28 86 -28q61 0 90 63q31 67 31 203v760q0 178 -146 178q-70 0 -196 -29v-749l127 -25v-45h-406v45l113 25v800l-113 25v45h268l9 -76q59 39 139 70
t145 31z" />
    <glyph glyph-name="Omacron" unicode="&#x14c;" horiz-adv-x="1478" 
d="M739 1276v-2q-128 0 -216 -40t-138 -121t-71 -187.5t-21 -255.5q0 -323 108 -467t338 -144q102 0 179 28t128 78.5t82.5 127.5t44.5 169t13 210q0 321 -109 463q-108 141 -338 141zM739 -23q-324 0 -489.5 178.5t-165.5 514.5q0 684 655 684q326 0 491 -175t165 -509
q0 -336 -166 -514.5t-490 -178.5zM424 1473v108h629v-108h-629z" />
    <glyph glyph-name="omacron" unicode="&#x14d;" horiz-adv-x="1024" 
d="M514 965q219 0 325.5 -127t106.5 -363q0 -495 -440 -495q-217 0 -322.5 129.5t-105.5 365.5t107.5 363t328.5 127zM766 475q0 76 -6.5 134.5t-24 112t-46.5 88t-75 55t-108 20.5t-107 -20t-72 -54t-42.5 -88t-21 -111.5t-5.5 -136.5t5.5 -137.5t21 -113.5t42.5 -89.5
t72 -55t107 -20.5t108 20.5t75 56t46.5 90t24 114t6.5 135.5zM197 1141v108h628v-108h-628z" />
    <glyph glyph-name="Obreve" unicode="&#x14e;" horiz-adv-x="1478" 
d="M739 1276v-2q-128 0 -216 -40t-138 -121t-71 -187.5t-21 -255.5q0 -323 108 -467t338 -144q102 0 179 28t128 78.5t82.5 127.5t44.5 169t13 210q0 321 -109 463q-108 141 -338 141zM739 -23q-324 0 -489.5 178.5t-165.5 514.5q0 684 655 684q326 0 491 -175t165 -509
q0 -336 -166 -514.5t-490 -178.5zM1026 1731h-2q-5 -130 -80.5 -205.5t-206.5 -75.5q-130 0 -206 76.5t-78 204.5h73q17 -67 73 -103.5t140 -36.5t140 36.5t73 103.5h74z" />
    <glyph glyph-name="obreve" unicode="&#x14f;" horiz-adv-x="1024" 
d="M514 965q219 0 325.5 -127t106.5 -363q0 -495 -440 -495q-217 0 -322.5 129.5t-105.5 365.5t107.5 363t328.5 127zM766 475q0 76 -6.5 134.5t-24 112t-46.5 88t-75 55t-108 20.5t-107 -20t-72 -54t-42.5 -88t-21 -111.5t-5.5 -136.5t5.5 -137.5t21 -113.5t42.5 -89.5
t72 -55t107 -20.5t108 20.5t75 56t46.5 90t24 114t6.5 135.5zM799 1399h-2q-5 -130 -80.5 -205.5t-206.5 -75.5q-130 0 -206.5 76.5t-78.5 204.5h74q17 -67 73 -103t140 -36t140 36t73 103h74z" />
    <glyph glyph-name="Ohungarumlaut" unicode="&#x150;" horiz-adv-x="1478" 
d="M739 1276v-2q-128 0 -216 -40t-138 -121t-71 -187.5t-21 -255.5q0 -323 108 -467t338 -144q102 0 179 28t128 78.5t82.5 127.5t44.5 169t13 210q0 321 -109 463q-108 141 -338 141zM739 -23q-324 0 -489.5 178.5t-165.5 514.5q0 684 655 684q326 0 491 -175t165 -509
q0 -336 -166 -514.5t-490 -178.5zM465 1450v33l156 272h192v-37l-293 -268h-55zM815 1450v33l156 272h192v-37l-293 -268h-55z" />
    <glyph glyph-name="ohungarumlaut" unicode="&#x151;" horiz-adv-x="1024" 
d="M514 965q219 0 325.5 -127t106.5 -363q0 -495 -440 -495q-217 0 -322.5 129.5t-105.5 365.5t107.5 363t328.5 127zM766 475q0 76 -6.5 134.5t-24 112t-46.5 88t-75 55t-108 20.5t-107 -20t-72 -54t-42.5 -88t-21 -111.5t-5.5 -136.5t5.5 -137.5t21 -113.5t42.5 -89.5
t72 -55t107 -20.5t108 20.5t75 56t46.5 90t24 114t6.5 135.5zM236 1118v33l155 272h193v-37l-293 -268h-55zM586 1118v33l155 272h193v-37l-293 -268h-55z" />
    <glyph glyph-name="OE" unicode="&#x152;" horiz-adv-x="1820" 
d="M84 672h2q0 339 161.5 507.5t493.5 168.5l273 -7h622v-321h-65l-33 217q-106 14 -326 14h-137v-524h281l30 160h64v-412h-64l-30 162h-281v-547h182q253 0 338 16l58 248h65l-18 -354h-684l-277 -6q-326 0 -490.5 172t-164.5 506zM295 672q0 -148 21 -253.5t71 -185.5
t138 -119.5t216 -39.5q70 0 142 10v1173q-61 11 -142 11q-128 0 -216 -39t-138 -118.5t-71 -185t-21 -253.5z" />
    <glyph glyph-name="oe" unicode="&#x153;" horiz-adv-x="1478" 
d="M78 475q0 490 395 490q199 0 299 -136q95 136 291 136q344 0 344 -410v-82h-543v-18q0 -186 61 -278.5t212 -92.5q46 0 118.5 9.5t114.5 19.5v-56q-45 -31 -127.5 -54t-157.5 -23q-217 0 -315 131q-98 -131 -305 -131q-200 0 -293.5 131.5t-93.5 363.5zM465 885l-2 -2
q-110 0 -160 -92q-49 -91 -49 -316t49 -319q51 -97 158 -97q113 0 166 99q53 100 53 317v27q-3 207 -55 295t-160 88zM1061 883l2 2q-197 0 -197 -332h367q0 176 -43 252q-44 78 -129 78z" />
    <glyph glyph-name="Racute" unicode="&#x154;" horiz-adv-x="1363" 
d="M1130 983q0 -139 -76.5 -235.5t-199.5 -131.5l365 -536l145 -27v-53h-322l-376 588h-242v-508l203 -27v-53h-555v53l159 27v1182l-172 26v53h580q118 0 204 -17t152.5 -57t100.5 -111t34 -173zM600 678q175 0 253.5 64.5t78.5 226.5q0 161 -78 221.5t-258 60.5h-172v-573
h176zM537 1452v33l196 272h213v-37l-354 -268h-55z" />
    <glyph glyph-name="racute" unicode="&#x155;" horiz-adv-x="681" 
d="M324 823q52 43 156 92.5t169 49.5h15v-254h-43l-58 110q-55 0 -124.5 -15t-112.5 -34v-702l161 -25v-45h-446v45l119 25v800l-119 25v45h274zM268 1118v33l197 272h213v-37l-354 -268h-56z" />
    <glyph glyph-name="Rcedilla" unicode="&#x156;" horiz-adv-x="1363" 
d="M1130 983q0 -139 -76.5 -235.5t-199.5 -131.5l365 -536l145 -27v-53h-322l-376 588h-242v-508l203 -27v-53h-555v53l159 27v1182l-172 26v53h580q118 0 204 -17t152.5 -57t100.5 -111t34 -173zM600 678q175 0 253.5 64.5t78.5 226.5q0 161 -78 221.5t-258 60.5h-172v-573
h176zM709 -70h-2q52 0 84 -39.5t32 -95.5q0 -89 -49 -141q-50 -53 -174 -90v63q121 38 121 88q0 6 -1.5 11.5t-3.5 9.5t-6.5 8.5l-7 7t-9 6.5t-9 5.5t-10 5t-8.5 4.5q-27 13 -41.5 29.5t-14.5 45.5q0 38 28 60t71 22z" />
    <glyph glyph-name="rcedilla" unicode="&#x157;" horiz-adv-x="681" 
d="M324 823q52 43 156 92.5t169 49.5h15v-254h-43l-58 110q-55 0 -124.5 -15t-112.5 -34v-702l161 -25v-45h-446v45l119 25v800l-119 25v45h274zM236 -70h-3q52 0 84.5 -39.5t32.5 -95.5q0 -89 -49 -141q-50 -53 -174 -90v63q121 38 121 88q0 6 -1.5 11.5t-3.5 9.5t-6.5 8.5
l-7 7t-9 6.5t-9 5.5t-10 5t-8.5 4.5q-27 13 -41.5 29.5t-14.5 45.5q0 38 28 60t71 22z" />
    <glyph glyph-name="Rcaron" unicode="&#x158;" horiz-adv-x="1363" 
d="M1130 983q0 -139 -76.5 -235.5t-199.5 -131.5l365 -536l145 -27v-53h-322l-376 588h-242v-508l203 -27v-53h-555v53l159 27v1182l-172 26v53h580q118 0 204 -17t152.5 -57t100.5 -111t34 -173zM600 678q175 0 253.5 64.5t78.5 226.5q0 161 -78 221.5t-258 60.5h-172v-573
h176zM365 1759l268 -184l268 184h55v-33l-217 -274h-213l-217 274v33h56z" />
    <glyph glyph-name="rcaron" unicode="&#x159;" horiz-adv-x="681" 
d="M324 823q52 43 156 92.5t169 49.5h15v-254h-43l-58 110q-55 0 -124.5 -15t-112.5 -34v-702l161 -25v-45h-446v45l119 25v800l-119 25v45h274zM74 1425l268 -184l268 184h56v-32l-217 -275h-213l-218 275v32h56z" />
    <glyph glyph-name="Sacute" unicode="&#x15a;" horiz-adv-x="1138" 
d="M551 -20v2q-108 0 -219 19.5t-193 51.5v309h66l35 -180q37 -46 129 -82.5t176 -36.5q136 0 216.5 70.5t80.5 198.5q0 30 -6 57t-15.5 48t-26.5 40.5t-31.5 33.5t-39.5 28.5t-43 23.5t-47.5 20.5t-47 17.5t-49.5 16.5t-47 15.5q-63 21 -107 40t-94 51.5t-80 70t-50.5 94.5
t-20.5 127q0 87 35 153.5t97.5 107t143 61t177.5 20.5q164 0 352 -43v-279h-65l-35 164q-103 74 -252 74q-125 0 -205 -51.5t-80 -153.5q0 -65 29.5 -107.5t81.5 -74.5q24 -15 56.5 -30t56.5 -23.5t66.5 -23.5t61.5 -22q64 -23 108.5 -43.5t95 -54.5t80.5 -73t50.5 -98.5
t20.5 -131.5q0 -200 -122.5 -303.5t-338.5 -103.5zM485 1454v33l197 272h213v-37l-354 -268h-56z" />
    <glyph glyph-name="sacute" unicode="&#x15b;" horiz-adv-x="796" 
d="M399 885h-4q-78 0 -122 -38.5t-44 -109.5q0 -64 40.5 -100t113.5 -62q145 -49 192 -73q144 -77 144 -240q0 -285 -350 -285q-65 0 -154 14.5t-133 33.5v231h45l49 -131q77 -68 197 -68q194 0 194 166q0 121 -153 174l-88 29q-94 31 -141 61.5t-76 90.5q-25 52 -25 120
q0 127 87 197t226 70q97 0 258 -31v-205h-47l-43 109q-53 47 -166 47zM297 1118v33l197 272h213v-37l-355 -268h-55z" />
    <glyph glyph-name="Scircumflex" unicode="&#x15c;" horiz-adv-x="1138" 
d="M551 -20v2q-108 0 -219 19.5t-193 51.5v309h66l35 -180q37 -46 129 -82.5t176 -36.5q136 0 216.5 70.5t80.5 198.5q0 30 -6 57t-15.5 48t-26.5 40.5t-31.5 33.5t-39.5 28.5t-43 23.5t-47.5 20.5t-47 17.5t-49.5 16.5t-47 15.5q-63 21 -107 40t-94 51.5t-80 70t-50.5 94.5
t-20.5 127q0 87 35 153.5t97.5 107t143 61t177.5 20.5q164 0 352 -43v-279h-65l-35 164q-103 74 -252 74q-125 0 -205 -51.5t-80 -153.5q0 -65 29.5 -107.5t81.5 -74.5q24 -15 56.5 -30t56.5 -23.5t66.5 -23.5t61.5 -22q64 -23 108.5 -43.5t95 -54.5t80.5 -73t50.5 -98.5
t20.5 -131.5q0 -200 -122.5 -303.5t-338.5 -103.5zM246 1454v33l217 274h213l217 -274v-33h-55l-269 184l-268 -184h-55z" />
    <glyph glyph-name="scircumflex" unicode="&#x15d;" horiz-adv-x="796" 
d="M399 885h-4q-78 0 -122 -38.5t-44 -109.5q0 -64 40.5 -100t113.5 -62q145 -49 192 -73q144 -77 144 -240q0 -285 -350 -285q-65 0 -154 14.5t-133 33.5v231h45l49 -131q77 -68 197 -68q194 0 194 166q0 121 -153 174l-88 29q-94 31 -141 61.5t-76 90.5q-25 52 -25 120
q0 127 87 197t226 70q97 0 258 -31v-205h-47l-43 109q-53 47 -166 47zM70 1118v33l217 274h213l217 -274v-33h-55l-269 185l-268 -185h-55z" />
    <glyph glyph-name="Scedilla" unicode="&#x15e;" horiz-adv-x="1138" 
d="M551 -20v2q-108 0 -219 19.5t-193 51.5v309h66l35 -180q37 -46 129 -82.5t176 -36.5q136 0 216.5 70.5t80.5 198.5q0 30 -6 57t-15.5 48t-26.5 40.5t-31.5 33.5t-39.5 28.5t-43 23.5t-47.5 20.5t-47 17.5t-49.5 16.5t-47 15.5q-63 21 -107 40t-94 51.5t-80 70t-50.5 94.5
t-20.5 127q0 87 35 153.5t97.5 107t143 61t177.5 20.5q164 0 352 -43v-279h-65l-35 164q-103 74 -252 74q-125 0 -205 -51.5t-80 -153.5q0 -65 29.5 -107.5t81.5 -74.5q24 -15 56.5 -30t56.5 -23.5t66.5 -23.5t61.5 -22q64 -23 108.5 -43.5t95 -54.5t80.5 -73t50.5 -98.5
t20.5 -131.5q0 -200 -122.5 -303.5t-338.5 -103.5zM553 -61h2q86 -8 140.5 -50.5t54.5 -119.5q0 -95 -71 -149t-177 -54q-73 0 -137 22v74q61 -16 116 -16t85 27t30 77q0 54 -43.5 83t-108.5 34l41 153h86z" />
    <glyph glyph-name="scedilla" unicode="&#x15f;" horiz-adv-x="796" 
d="M399 885h-4q-78 0 -122 -38.5t-44 -109.5q0 -64 40.5 -100t113.5 -62q145 -49 192 -73q144 -77 144 -240q0 -285 -350 -285q-65 0 -154 14.5t-133 33.5v231h45l49 -131q77 -68 197 -68q194 0 194 166q0 121 -153 174l-88 29q-94 31 -141 61.5t-76 90.5q-25 52 -25 120
q0 127 87 197t226 70q97 0 258 -31v-205h-47l-43 109q-53 47 -166 47zM360 -63h2q86 -8 140.5 -50.5t54.5 -119.5q0 -95 -71 -149t-177 -54q-73 0 -137 22v74q61 -16 117 -16q54 0 84 26.5t30 77.5q0 55 -43 83.5t-108 33.5l41 153h86z" />
    <glyph glyph-name="Scaron" unicode="&#x160;" horiz-adv-x="1138" 
d="M551 -20v2q-108 0 -219 19.5t-193 51.5v309h66l35 -180q37 -46 129 -82.5t176 -36.5q136 0 216.5 70.5t80.5 198.5q0 30 -6 57t-15.5 48t-26.5 40.5t-31.5 33.5t-39.5 28.5t-43 23.5t-47.5 20.5t-47 17.5t-49.5 16.5t-47 15.5q-63 21 -107 40t-94 51.5t-80 70t-50.5 94.5
t-20.5 127q0 87 35 153.5t97.5 107t143 61t177.5 20.5q164 0 352 -43v-279h-65l-35 164q-103 74 -252 74q-125 0 -205 -51.5t-80 -153.5q0 -65 29.5 -107.5t81.5 -74.5q24 -15 56.5 -30t56.5 -23.5t66.5 -23.5t61.5 -22q64 -23 108.5 -43.5t95 -54.5t80.5 -73t50.5 -98.5
t20.5 -131.5q0 -200 -122.5 -303.5t-338.5 -103.5zM330 1761l268 -184l268 184h56v-32l-217 -275h-213l-218 275v32h56z" />
    <glyph glyph-name="scaron" unicode="&#x161;" horiz-adv-x="796" 
d="M399 885h-4q-78 0 -122 -38.5t-44 -109.5q0 -64 40.5 -100t113.5 -62q145 -49 192 -73q144 -77 144 -240q0 -285 -350 -285q-65 0 -154 14.5t-133 33.5v231h45l49 -131q77 -68 197 -68q194 0 194 166q0 121 -153 174l-88 29q-94 31 -141 61.5t-76 90.5q-25 52 -25 120
q0 127 87 197t226 70q97 0 258 -31v-205h-47l-43 109q-53 47 -166 47zM143 1425l269 -184l268 184h55v-32l-217 -275h-213l-217 275v32h55z" />
    <glyph glyph-name="uni0162" unicode="&#x162;" horiz-adv-x="1249" 
d="M315 0v53l213 27v1175h-51q-259 0 -346 -20l-27 -209h-67v315h1180v-315h-68l-27 209q-90 18 -352 18h-49v-1173l213 -27v-53h-619zM602 -63h2q86 -8 140.5 -50.5t54.5 -119.5q0 -95 -71 -149t-177 -54q-73 0 -137 22v74q61 -16 116 -16t85 27t30 77q0 55 -43 83.5
t-108 33.5l41 153h86z" />
    <glyph glyph-name="uni0163" unicode="&#x163;" horiz-adv-x="567" 
d="M557 35q-31 -23 -98.5 -39t-124.5 -16q-96 0 -143.5 57t-47.5 160v659h-123v45l125 39l101 213h63v-213h215v-84h-215v-641q0 -60 27 -95.5t80 -35.5t141 16v-65zM338 -63h2q86 -8 140.5 -50.5t54.5 -119.5q0 -95 -71 -149t-177 -54q-73 0 -137 22v74q61 -16 116 -16
t85 27t30 77q0 54 -43.5 83t-108.5 34l41 153h86z" />
    <glyph glyph-name="Tcaron" unicode="&#x164;" horiz-adv-x="1249" 
d="M315 0v53l213 27v1175h-51q-259 0 -346 -20l-27 -209h-67v315h1180v-315h-68l-27 209q-90 18 -352 18h-49v-1173l213 -27v-53h-619zM356 1759l269 -184l268 184h55v-33l-217 -274h-213l-217 274v33h55z" />
    <glyph glyph-name="tcaron" unicode="&#x165;" horiz-adv-x="874" 
d="M557 35q-31 -23 -98.5 -39t-124.5 -16q-96 0 -143.5 57t-47.5 160v659h-123v45l125 39l101 213h63v-213h215v-84h-215v-641q0 -60 27 -95.5t80 -35.5t141 16v-65zM723 1448l-2 -4q54 0 85.5 -41.5t31.5 -102.5q0 -107 -72 -176q-69 -66 -234 -104v63q125 27 168 80
q19 25 19 64q0 8 -3 15t-9 13.5t-10.5 10t-13.5 10t-11 8.5q-47 34 -47 84q0 38 27.5 59t70.5 21z" />
    <glyph glyph-name="Tbar" unicode="&#x166;" horiz-adv-x="1249" 
d="M315 0v53l213 27v549h-321v82h321v544h-51q-259 0 -346 -20l-27 -209h-67v315h1180v-315h-68l-27 209q-90 18 -352 18h-49v-542h323v-82h-323v-549l213 -27v-53h-619z" />
    <glyph glyph-name="tbar" unicode="&#x167;" horiz-adv-x="567" 
d="M557 35q-31 -23 -98.5 -39t-124.5 -16q-96 0 -143.5 57t-47.5 160v301h-120v84h120v274h-123v45l125 39l101 213h63v-213h215v-84h-215v-274h205v-84h-205v-283q0 -60 27 -95.5t80 -35.5t141 16v-65z" />
    <glyph glyph-name="Utilde" unicode="&#x168;" horiz-adv-x="1478" 
d="M762 92q190 0 293.5 90.5t103.5 270.5v809l-180 26v53h457v-53l-172 -26v-801q0 -242 -132 -361.5t-384 -119.5q-254 0 -393.5 115.5t-139.5 346.5v820l-172 26v53h537v-53l-172 -26v-805q0 -365 354 -365zM948 1575v-2q50 0 70.5 28.5t28.5 90.5h51q-15 -242 -197 -242
q-71 0 -164 70q-63 45 -69 49q-36 22 -68 22q-28 0 -46 -7.5t-28.5 -26t-15.5 -36t-10 -48.5h-51q15 241 196 241q32 0 66 -12t52 -24t48 -33q66 -48 70 -50q33 -20 67 -20z" />
    <glyph glyph-name="utilde" unicode="&#x169;" horiz-adv-x="1024" 
d="M707 76h-5q-65 -36 -156 -66t-161 -30q-240 0 -240 276v614l-120 25v45h286v-672q0 -172 160 -172q122 0 234 31v743l-142 25v45h307v-870l119 -25v-45h-274zM680 1241v-2q50 0 70 28.5t28 90.5h51q-15 -242 -196 -242q-71 0 -164 70q-57 41 -70 49q-36 22 -67 22
q-52 0 -71 -28t-30 -90h-51q15 241 197 241q32 0 66 -12t52 -24t48 -33q63 -45 69 -49q34 -21 68 -21z" />
    <glyph glyph-name="Umacron" unicode="&#x16a;" horiz-adv-x="1478" 
d="M762 92q190 0 293.5 90.5t103.5 270.5v809l-180 26v53h457v-53l-172 -26v-801q0 -242 -132 -361.5t-384 -119.5q-254 0 -393.5 115.5t-139.5 346.5v820l-172 26v53h537v-53l-172 -26v-805q0 -365 354 -365zM455 1475v108h628v-108h-628z" />
    <glyph glyph-name="umacron" unicode="&#x16b;" horiz-adv-x="1024" 
d="M707 76h-5q-65 -36 -156 -66t-161 -30q-240 0 -240 276v614l-120 25v45h286v-672q0 -172 160 -172q122 0 234 31v743l-142 25v45h307v-870l119 -25v-45h-274zM193 1141v108h628v-108h-628z" />
    <glyph glyph-name="Ubreve" unicode="&#x16c;" horiz-adv-x="1478" 
d="M762 92q190 0 293.5 90.5t103.5 270.5v809l-180 26v53h457v-53l-172 -26v-801q0 -242 -132 -361.5t-384 -119.5q-254 0 -393.5 115.5t-139.5 346.5v820l-172 26v53h537v-53l-172 -26v-805q0 -365 354 -365zM1069 1733h-2q-5 -130 -80.5 -205.5t-206.5 -75.5
q-130 0 -206 76.5t-78 204.5h73q17 -67 73 -103.5t140 -36.5t140 36.5t73 103.5h74z" />
    <glyph glyph-name="ubreve" unicode="&#x16d;" horiz-adv-x="1024" 
d="M707 76h-5q-65 -36 -156 -66t-161 -30q-240 0 -240 276v614l-120 25v45h286v-672q0 -172 160 -172q122 0 234 31v743l-142 25v45h307v-870l119 -25v-45h-274zM795 1399h-2q-5 -130 -80.5 -205.5t-206.5 -75.5q-130 0 -206.5 76.5t-78.5 204.5h74q17 -67 73 -103t140 -36
t140 36t73 103h74z" />
    <glyph glyph-name="Uring" unicode="&#x16e;" horiz-adv-x="1478" 
d="M762 92q190 0 293.5 90.5t103.5 270.5v809l-180 26v53h457v-53l-172 -26v-801q0 -242 -132 -361.5t-384 -119.5q-254 0 -393.5 115.5t-139.5 346.5v820l-172 26v53h537v-53l-172 -26v-805q0 -365 354 -365zM786 1817q83 0 143 -60t60 -143t-60 -143t-143 -60t-142.5 60
t-59.5 143t59.5 143t142.5 60zM786 1491q50 0 86.5 36t36.5 87t-36 87t-87 36t-86.5 -36t-35.5 -87t36 -87t86 -36z" />
    <glyph glyph-name="uring" unicode="&#x16f;" horiz-adv-x="1024" 
d="M707 76h-5q-65 -36 -156 -66t-161 -30q-240 0 -240 276v614l-120 25v45h286v-672q0 -172 160 -172q122 0 234 31v743l-142 25v45h307v-870l119 -25v-45h-274zM508 1483q83 0 143 -60t60 -143t-60 -143t-143 -60t-143 60t-60 143t60 143t143 60zM508 1157q50 0 86.5 36
t36.5 87t-36 87t-87 36t-87 -36t-36 -87t36.5 -87t86.5 -36z" />
    <glyph glyph-name="Uhungarumlaut" unicode="&#x170;" horiz-adv-x="1478" 
d="M762 92q190 0 293.5 90.5t103.5 270.5v809l-180 26v53h457v-53l-172 -26v-801q0 -242 -132 -361.5t-384 -119.5q-254 0 -393.5 115.5t-139.5 346.5v820l-172 26v53h537v-53l-172 -26v-805q0 -365 354 -365zM508 1452v33l156 272h192v-37l-293 -268h-55zM858 1452v33
l156 272h192v-37l-293 -268h-55z" />
    <glyph glyph-name="uhungarumlaut" unicode="&#x171;" horiz-adv-x="1024" 
d="M707 76h-5q-65 -36 -156 -66t-161 -30q-240 0 -240 276v614l-120 25v45h286v-672q0 -172 160 -172q122 0 234 31v743l-142 25v45h307v-870l119 -25v-45h-274zM223 1118v33l156 272h192v-37l-292 -268h-56zM573 1118v33l156 272h193v-37l-293 -268h-56z" />
    <glyph glyph-name="Uogonek" unicode="&#x172;" horiz-adv-x="1478" 
d="M762 92q190 0 293.5 90.5t103.5 270.5v809l-180 26v53h457v-53l-172 -26v-801q0 -242 -132 -361.5t-384 -119.5q-254 0 -393.5 115.5t-139.5 346.5v820l-172 26v53h537v-53l-172 -26v-805q0 -365 354 -365zM827 -166q0 -72 35 -112.5t103 -40.5q55 0 116 22v-63
q-70 -48 -168 -48q-108 0 -169.5 56.5t-61.5 161.5q0 108 90 202h109q-20 -30 -37 -83t-17 -95z" />
    <glyph glyph-name="uogonek" unicode="&#x173;" horiz-adv-x="1024" 
d="M707 76h-5q-65 -36 -156 -66t-161 -30q-240 0 -240 276v614l-120 25v45h286v-672q0 -172 160 -172q122 0 234 31v743l-142 25v45h307v-870l119 -25v-45h-274zM768 -162q0 -72 34.5 -112.5t102.5 -40.5q56 0 117 22v-63q-68 -47 -168 -47q-109 0 -170 56t-61 161
q0 108 90 202h108q-20 -29 -36.5 -82.5t-16.5 -95.5z" />
    <glyph glyph-name="Wcircumflex" unicode="&#x174;" horiz-adv-x="1931" 
d="M1374 -31h-53l-348 924l-357 -924h-53l-444 1293l-117 26v53h512v-53l-197 -26l320 -945l360 930h45l349 -930l303 945l-209 26v53h444v-53l-117 -26zM678 1452v33l217 274h213l217 -274v-33h-55l-269 184l-268 -184h-55z" />
    <glyph glyph-name="wcircumflex" unicode="&#x175;" horiz-adv-x="1478" 
d="M1051 -20h-78l-232 620l-229 -620h-74l-325 890l-111 25v45h447v-45l-156 -27l223 -635l227 613h84l226 -617l213 641l-154 25v45h358v-45l-104 -21zM446 1118v33l218 274h213l217 -274v-33h-56l-268 185l-268 -185h-56z" />
    <glyph glyph-name="Ycircumflex" unicode="&#x176;" horiz-adv-x="1478" 
d="M838 528v-448l213 -27v-53h-619v53l213 27v442l-471 740l-151 26v53h567v-53l-180 -26l385 -619l366 619l-170 26v53h436v-53l-147 -26zM416 1452v33l217 274h213l217 -274v-33h-55l-269 184l-268 -184h-55z" />
    <glyph glyph-name="ycircumflex" unicode="&#x177;" horiz-adv-x="1024" 
d="M199 -442l-2 2q-77 0 -154 18v203h47l33 -96q33 -23 86 -23q59 0 100 32t76 87q35 54 92 209l-358 880l-96 25v45h436v-45l-148 -27l254 -657l246 659l-147 25v45h350v-45l-99 -21l-366 -933q-67 -172 -113 -238q-46 -69 -100.5 -107t-136.5 -38zM209 1120v33l217 274
h213l217 -274v-33h-55l-269 185l-268 -185h-55z" />
    <glyph glyph-name="Ydieresis" unicode="&#x178;" horiz-adv-x="1478" 
d="M838 528v-448l213 -27v-53h-619v53l213 27v442l-471 740l-151 26v53h567v-53l-180 -26l385 -619l366 619l-170 26v53h436v-53l-147 -26zM930 1659q43 0 70.5 -28.5t27.5 -71.5q0 -42 -28.5 -71.5t-69.5 -29.5t-71 30.5t-30 70.5q0 43 29 71.5t72 28.5zM573 1659
q43 0 71 -28.5t28 -71.5t-28 -72t-71 -29q-40 0 -70 30.5t-30 70.5q0 41 30 70.5t70 29.5z" />
    <glyph glyph-name="Zacute" unicode="&#x179;" horiz-adv-x="1249" 
d="M98 94l752 1161h-250q-253 0 -340 -20l-31 -211h-69v317h913v-86l-758 -1171h291q92 0 215.5 10t188.5 23l59 256h70l-27 -373h-1014v94zM514 1452v33l197 272h213v-37l-355 -268h-55z" />
    <glyph glyph-name="zacute" unicode="&#x17a;" horiz-adv-x="907" 
d="M55 0v45l516 815h-221q-53 0 -106 -9t-74 -26l-31 -135h-47v250h694v-49l-516 -811h275q55 0 119 13t90 34l51 197h47l-25 -324h-772zM336 1118v33l196 272h213v-37l-354 -268h-55z" />
    <glyph glyph-name="Zdotaccent" unicode="&#x17b;" horiz-adv-x="1249" 
d="M98 94l752 1161h-250q-253 0 -340 -20l-31 -211h-69v317h913v-86l-758 -1171h291q92 0 215.5 10t188.5 23l59 256h70l-27 -373h-1014v94zM627 1690q44 0 77 -32.5t33 -76.5q0 -43 -33 -75.5t-77 -32.5q-43 0 -75 32t-32 76t32 76.5t75 32.5z" />
    <glyph glyph-name="zdotaccent" unicode="&#x17c;" horiz-adv-x="907" 
d="M55 0v45l516 815h-221q-53 0 -106 -9t-74 -26l-31 -135h-47v250h694v-49l-516 -811h275q55 0 119 13t90 34l51 197h47l-25 -324h-772zM463 1356q44 0 77 -32.5t33 -76.5q0 -43 -33 -75.5t-77 -32.5q-43 0 -75 32t-32 76t32 76.5t75 32.5z" />
    <glyph glyph-name="Zcaron" unicode="&#x17d;" horiz-adv-x="1249" 
d="M98 94l752 1161h-250q-253 0 -340 -20l-31 -211h-69v317h913v-86l-758 -1171h291q92 0 215.5 10t188.5 23l59 256h70l-27 -373h-1014v94zM362 1759l269 -184l268 184h55v-33l-217 -274h-213l-217 274v33h55z" />
    <glyph glyph-name="zcaron" unicode="&#x17e;" horiz-adv-x="907" 
d="M55 0v45l516 815h-221q-53 0 -106 -9t-74 -26l-31 -135h-47v250h694v-49l-516 -811h275q55 0 119 13t90 34l51 197h47l-25 -324h-772zM188 1425l269 -184l268 184h55v-32l-217 -275h-213l-217 275v32h55z" />
    <glyph glyph-name="longs" unicode="&#x17f;" horiz-adv-x="567" 
d="M188 1010l-4 -2q0 127 30.5 221t102.5 152.5t181 58.5q72 0 143 -19v-204h-49l-45 122q-34 21 -80 21q-64 0 -88 -55q-25 -58 -25 -209v-1018l162 -33v-45h-467v45l139 33v932z" />
    <glyph glyph-name="uni0180" unicode="&#x180;" horiz-adv-x="1024" 
d="M514 -20v-3q-89 0 -194 20.5t-177 49.5v1063h-147v84h147v156l-137 24v45h303v-225h299v-84h-299v-27q0 -52 -6 -196q104 78 252 78q202 0 299.5 -122t97.5 -347q0 -244 -108.5 -380t-329.5 -136zM512 63q77 0 130 33t80.5 95.5t38.5 134.5t11 168q0 174 -59.5 269
t-200.5 95q-50 0 -111.5 -10t-91.5 -23v-745q93 -17 203 -17z" />
    <glyph glyph-name="uni0181" unicode="&#x181;" horiz-adv-x="1554" 
d="M821 743q160 0 238 63t78 210q0 131 -83 183t-245 52h-207v-508h219zM897 84q168 0 254 71.5t86 227.5q0 79 -27.5 132.5t-81.5 83t-123 42t-163 12.5h-240v-563q138 -6 295 -6zM1065 715v-2q79 -8 146 -31t120 -62.5t83 -99.5t30 -135q0 -104 -38 -180.5t-109 -122
t-164 -67t-211 -21.5l-428 6h-256v53l172 27v1171h-56q-83 0 -129.5 -23.5t-70.5 -80.5l-50 -121h-67l6 266q94 49 289 49h518q91 0 161.5 -8t134.5 -29.5t105.5 -56t65.5 -90.5t24 -131q0 -127 -76.5 -206.5t-199.5 -104.5z" />
    <glyph glyph-name="uni0182" unicode="&#x182;" horiz-adv-x="1175" 
d="M1057 373h2q0 -193 -131 -283t-361 -90h-506v53l172 27v1182l-159 26v53h901l12 -309h-63l-58 203q-110 20 -284 20h-158v-510h151q226 0 354 -90t128 -282zM524 90q175 0 255.5 59.5t80.5 212.5q0 156 -81.5 224.5t-248.5 68.5h-104v-565h98z" />
    <glyph glyph-name="uni0183" unicode="&#x183;" horiz-adv-x="1024" 
d="M504 66h-2q62 0 109 22.5t75.5 60.5t46.5 94.5t24.5 117t6.5 135.5q0 175 -59.5 269.5t-202.5 94.5q-50 0 -109 -10t-90 -23v-745q88 -16 201 -16zM547 965l2 -2q202 0 299.5 -122t97.5 -347q0 -244 -108.5 -380.5t-329.5 -136.5q-89 0 -194 20.5t-177 49.5v1292h721
l12 -260h-63l-57 154q-110 20 -285 20h-164v-170q0 -52 -6 -196q104 78 252 78z" />
    <glyph glyph-name="uni0184" unicode="&#x184;" horiz-adv-x="1175" 
d="M627 745q225 0 353 -92t128 -286q0 -98 -36.5 -170t-103.5 -114.5t-155 -62.5t-199 -20h-555v53l172 27v852l-194 166v61l323 182h64v-596h203zM571 90q175 0 255.5 59.5t80.5 212.5q0 158 -80 225.5t-249 67.5h-154v-565h147z" />
    <glyph glyph-name="uni0185" unicode="&#x185;" horiz-adv-x="1024" 
d="M504 66h-2q62 0 109 22.5t75.5 60.5t46.5 94.5t24.5 117t6.5 135.5q0 175 -59.5 269.5t-202.5 94.5q-50 0 -109 -10t-90 -23v-745q88 -16 201 -16zM506 -20v-3q-89 0 -194 20.5t-177 49.5v952l-137 175v49l254 196h49v-336q0 -52 -6 -196q104 78 252 78q202 0 299.5 -122
t97.5 -347q0 -244 -108.5 -380t-329.5 -136z" />
    <glyph glyph-name="uni0186" unicode="&#x186;" horiz-adv-x="1363" 
d="M1073 680q0 137 -28 245.5t-85.5 188.5t-151 123t-218.5 43q-111 0 -213 -27.5t-162 -74.5l-37 -199h-65l6 313q219 64 473 64q324 0 507 -177t183 -497q0 -346 -175 -524t-519 -178q-216 0 -449 51l-6 293h66l30 -174q67 -41 160 -66t191 -25q136 0 232.5 41.5t153 124
t82 193.5t25.5 262z" />
    <glyph glyph-name="uni0187" unicode="&#x187;" horiz-adv-x="1363" 
d="M1128 1323q3 142 69.5 230.5t191.5 88.5q127 0 206 -30v-244h-65l-31 139q-40 49 -131 49q-139 0 -139 -190v-115l4 -239h-66l-30 174q-66 41 -159 65.5t-192 24.5q-109 0 -192.5 -27.5t-140.5 -78t-93 -128t-51.5 -171.5t-15.5 -214q0 -137 28 -245.5t85.5 -188.5
t151 -123t218.5 -43q109 0 211 27.5t164 73.5l37 200h65l-6 -315q-212 -63 -473 -63q-324 0 -507 177.5t-183 497.5q0 346 175 523.5t519 177.5q182 0 350 -33z" />
    <glyph glyph-name="uni0188" unicode="&#x188;" horiz-adv-x="907" 
d="M729 950v-2q15 131 68.5 198.5t171.5 67.5q75 0 143 -18v-205h-49l-45 123q-34 21 -80 21q-64 0 -88 -56q-25 -58 -25 -209v-198h-55l-43 166q-83 47 -197 47q-268 0 -268 -408q0 -202 76.5 -297.5t257.5 -95.5q149 0 252 33v-60q-48 -36 -135 -56.5t-178 -20.5
q-457 0 -457 497q0 231 114.5 359.5t335.5 128.5q99 0 201 -15z" />
    <glyph glyph-name="uni0189" unicode="&#x189;" horiz-adv-x="1478" 
d="M1397 678q0 -342 -164 -512t-500 -170l-502 4h-172v53l172 27v549h-178v82h178v551l-172 26v53h572q366 0 566 -164.5t200 -498.5zM1188 670h2q0 293 -150.5 437t-451.5 144h-162v-540h377v-82h-377v-535q107 -8 283 -8q258 0 368.5 145.5t110.5 438.5z" />
    <glyph glyph-name="uni018A" unicode="&#x18a;" horiz-adv-x="1667" 
d="M903 86h2q131 0 224 39.5t148.5 118t81 185.5t25.5 251q0 279 -150.5 425t-432.5 146h-180v-1157q107 -8 282 -8zM1593 678h-2q0 -338 -174 -510t-514 -172l-477 4h-172v53l172 27v1171h-55q-83 0 -130 -23.5t-71 -80.5l-49 -121h-68l6 266q94 49 289 49h516
q361 0 545 -161.5t184 -501.5z" />
    <glyph glyph-name="uni018B" unicode="&#x18b;" horiz-adv-x="1175" 
d="M598 655q-169 0 -250.5 -68t-81.5 -225q0 -153 80.5 -212.5t255.5 -59.5h150v565h-154zM68 367q0 194 129 286t354 92h201v510h-207q-195 0 -285 -20l-55 -203h-66l13 309h952v-53l-160 -26v-1182l172 -27v-53h-557q-491 0 -491 367z" />
    <glyph glyph-name="uni018C" unicode="&#x18c;" horiz-adv-x="1024" 
d="M248 461q0 -86 12.5 -152t41.5 -118t81 -79.5t125 -27.5q118 0 203 39v743q-100 17 -203 17q-260 0 -260 -422zM68 461q0 240 106 372t324 132q97 0 219 -23q-6 35 -6 166v147h-121q-259 0 -346 -20l-27 -154h-67v260h727v-1271l116 -25v-45h-264l-12 70
q-116 -90 -264 -90q-385 0 -385 481z" />
    <glyph glyph-name="uni018D" unicode="&#x18d;" horiz-adv-x="964" 
d="M872 532v-8q0 -176 -88 -287t-243 -159q107 -82 151 -144q42 -59 45 -131v-14q0 -62 -28 -108.5t-76.5 -73.5t-109 -40t-132.5 -13q-96 0 -201 18l-10 205h47l47 -105q45 -39 136 -39q84 0 132 34t48 106q0 51 -35 98q-32 43 -109 98l-104 74q-143 98 -211 213t-68 270
q0 197 113.5 319t304.5 122q184 0 287.5 -119.5t103.5 -315.5zM700 506v-2q0 79 -12 143.5t-38.5 117.5t-74.5 82.5t-114 29.5q-60 0 -104.5 -24t-70.5 -67.5t-38 -98.5t-12 -124q0 -155 47.5 -246t152.5 -165l39 -29q117 45 171 135.5t54 247.5z" />
    <glyph glyph-name="uni018E" unicode="&#x18e;" horiz-adv-x="1249" 
d="M1192 0h-1071l-19 354h66l57 -248q85 -16 338 -16h264v547h-362l-31 -162h-63v412h63l31 -160h362v524h-219q-222 0 -323 -14l-33 -217h-66v321h1006v-53l-172 -26v-1182l172 -27v-53z" />
    <glyph glyph-name="uni018F" unicode="&#x18f;" horiz-adv-x="1478" 
d="M1184 745q-7 138 -34 233.5t-83 164t-146.5 101t-222.5 32.5q-99 0 -191.5 -24.5t-158.5 -65.5l-31 -174h-65l6 293q233 51 449 51q351 0 520.5 -173t169.5 -528q0 -328 -170.5 -501.5t-495.5 -173.5q-324 0 -485.5 177t-161.5 515l2 73h1098zM293 655
q0 -138 22.5 -243.5t72 -187t136 -124.5t207.5 -43q126 0 215.5 41.5t142 121.5t76 186.5t23.5 248.5h-895z" />
    <glyph glyph-name="uni0190" unicode="&#x190;" horiz-adv-x="1024" 
d="M569 -20l2 2q-211 0 -344 100t-133 285q0 158 88.5 238t253.5 100q-135 20 -220 104.5t-85 218.5q0 87 31.5 152t90.5 103.5t136 57.5t174 19q148 0 316 -43v-258h-66l-35 164q-34 22 -94 37.5t-115 15.5q-124 0 -176.5 -63t-52.5 -195q0 -122 64 -191t180 -75l143 -9
v-81l-143 -9q-142 -6 -212.5 -73.5t-70.5 -204.5q0 -164 68 -238t225 -74q56 0 124 16t103 38l43 188h68l-12 -282q-168 -43 -351 -43z" />
    <glyph glyph-name="uni0191" unicode="&#x191;" horiz-adv-x="1138" 
d="M1065 1020h-64l-32 217q-106 14 -326 14h-219v-559h395l31 160h61v-412h-61l-31 162h-395v-594q0 -279 -166 -393q-80 -57 -188 -57q-125 0 -207 28v244h65l31 -137q40 -49 131 -49q139 0 139 188l2 1430l-172 26v53h1006v-321z" />
    <glyph glyph-name="florin" unicode="&#x192;" horiz-adv-x="1024" 
d="M219 -285l137 990h-161l8 49l166 34l32 232q22 153 107 248.5t231 95.5q89 0 154 -18v-183h-47l-33 97q-31 22 -86 22q-87 0 -123 -102q-20 -57 -37 -179l-30 -215h249l-14 -84h-248l-143 -987h-162z" />
    <glyph glyph-name="uni0193" unicode="&#x193;" horiz-adv-x="1478" 
d="M776 57q81 0 176.5 20t141.5 48v381l-172 26v54h495v-54l-131 -26v-436q-268 -90 -510 -90q-326 0 -508 176.5t-182 498.5q0 349 174 525t520 176q184 0 369 -37q2 145 67.5 234t192.5 89t207 -30v-244h-66l-30 139q-40 49 -131 49q-140 0 -140 -190v-358h-67l-27 166
q-68 47 -164.5 74.5t-204.5 27.5q-136 0 -232.5 -42t-153 -124t-82 -193t-25.5 -260q0 -139 27.5 -247t84.5 -188t150.5 -122.5t220.5 -42.5z" />
    <glyph glyph-name="uni0194" unicode="&#x194;" horiz-adv-x="1478" 
d="M1456 1341l2 -51l-147 -26l-465 -1117q83 -203 117 -331q34 -126 49 -248l-371 -10l-66 28q6 93 31 193q24 95 86 252l-518 1231l-151 26v53h542v-53l-180 -26l406 -988l405 988l-176 26v53h436zM745 -94q-67 -172 -67 -256l18 -8l119 8q-12 117 -70 256z" />
    <glyph glyph-name="uni0195" unicode="&#x195;" horiz-adv-x="1576" 
d="M1440 256h2q0 -141 -97.5 -208.5t-263.5 -67.5q-167 0 -264.5 67.5t-97.5 208.5v420q0 172 -166 172q-85 0 -227 -29v-749l127 -25v-45h-412v45l119 25v1282l-140 24v45h306v-407q0 -96 -7 -150q66 38 156.5 69.5t161.5 31.5q246 0 246 -277v-420q0 -92 53.5 -150.5
t142.5 -58.5q88 0 142.5 58.5t54.5 150.5v602l-143 25v45h307v-684z" />
    <glyph glyph-name="uni0196" unicode="&#x196;" horiz-adv-x="518" 
d="M518 35q-22 -19 -78 -37t-96 -18q-90 0 -138 59.5t-48 157.5v1155l-160 24v45h326v-1208q0 -58 24 -93.5t72 -35.5q29 0 98 16v-65z" />
    <glyph glyph-name="uni0197" unicode="&#x197;" horiz-adv-x="681" 
d="M647 676h-209v-596l172 -27v-53h-536v53l172 27v596h-211v82h211v504l-172 26v53h536v-53l-172 -26v-504h209v-82z" />
    <glyph glyph-name="uni0198" unicode="&#x198;" horiz-adv-x="1478" 
d="M559 1276v-2q-68 0 -101.5 -53t-33.5 -138v-469l655 646l-133 26v53h420v-53l-154 -26l-458 -449l573 -733l146 -27v-53h-328l-527 678l-194 -158v-440l192 -27v-53h-557v53l172 27v829q0 277 162 396q83 59 180 59q106 0 197 -31v-244h-65l-29 140q-15 22 -48 35.5
t-69 13.5z" />
    <glyph glyph-name="uni0199" unicode="&#x199;" horiz-adv-x="1024" 
d="M178 1010l-4 -2q0 75 11 139t34.5 118.5t59.5 93t89 60t119 21.5q73 0 144 -19v-204h-49l-45 122q-35 21 -80 21q-64 0 -88 -55q-25 -58 -25 -209v-643l385 415l-98 27v45h332v-45l-117 -23l-268 -274l344 -530l102 -23v-45h-385v45l86 25l-258 405l-123 -135v-270
l100 -25v-45h-385v45l119 25v940z" />
    <glyph glyph-name="uni019A" unicode="&#x19a;" horiz-adv-x="567" 
d="M367 674v-604l161 -25v-45h-487v45l160 25v604h-168v84h168v594l-160 24v45h326v-663h170v-84h-170z" />
    <glyph glyph-name="uni019B" unicode="&#x19b;" horiz-adv-x="991" 
d="M786 0l-239 764q-33 -90 -320 -764h-174v33l430 952l-24 80l-338 -328v115l309 299q-71 197 -166 197q-26 0 -55 -13l-41 -82h-49v170q74 19 147 19q88 0 142 -51t98 -166l186 182v-115l-155 -151l329 -994q24 -75 115 -102v-45h-195z" />
    <glyph glyph-name="uni019C" unicode="&#x19c;" horiz-adv-x="1671" 
d="M1102 98l2 2q39 0 112.5 10t104.5 19v1135l-141 26v53h462v-53l-129 -26v-1182l129 -27v-53h-311l-8 76q-189 -101 -324 -101q-79 0 -138 28.5t-87 80.5q-78 -41 -183 -75t-185 -34q-250 0 -250 277v1010l-131 26v53h462v-53l-141 -26v-992q0 -87 38.5 -129.5
t123.5 -42.5q40 0 123 12.5t125 22.5q-16 57 -19 117v1010l-139 26v53h471v-53l-139 -26v-992q0 -172 172 -172z" />
    <glyph glyph-name="uni019D" unicode="&#x19d;" horiz-adv-x="1478" 
d="M76 -362q47 0 78.5 19.5t47.5 58t22.5 83t6.5 105.5v1358l-172 26v53h406l690 -993v914l-180 26v53h457v-53l-172 -26v-1262h-97l-827 1206v-1251q0 -184 -71.5 -290.5t-225.5 -106.5q-87 0 -191 16v236h70l62 -152q36 -20 96 -20z" />
    <glyph glyph-name="uni019E" unicode="&#x19e;" horiz-adv-x="1024" 
d="M713 670q0 178 -166 178q-79 0 -221 -29v-749l127 -25v-45h-406v45l113 25v800l-113 25v45h268l9 -76q183 101 309 101q246 0 246 -277v-1061l114 -24v-45h-405v45l125 24v1043z" />
    <glyph glyph-name="uni019F" unicode="&#x19f;" horiz-adv-x="1478" 
d="M739 -20q-324 0 -489.5 178t-165.5 514q0 684 655 684q326 0 491 -175t165 -509q0 -336 -166 -514t-490 -178zM293 647h2q1 -141 23 -245.5t72.5 -183.5t137.5 -119t211 -40q125 0 212.5 40t137.5 119.5t72.5 183t24.5 245.5h-893zM1188 731q-4 132 -28.5 229.5t-76 170
t-137 109t-205.5 36.5t-205 -36.5t-136 -109t-75 -169.5t-28 -230h891z" />
    <glyph glyph-name="Ohorn" unicode="&#x1a0;" horiz-adv-x="1478" 
d="M1403 1462l2 2q65 0 103 -45t38 -116q0 -200 -200 -308q51 -131 51 -323q0 -336 -166 -514t-490 -178t-489.5 178t-165.5 514q0 684 655 684q426 0 576 -293q101 55 98 119q0 18 -10 32.5t-22 21.5t-33 17q-67 34 -70 99q0 52 34.5 81t88.5 29zM741 1278v-2
q-128 0 -216 -40t-138 -121t-71 -187.5t-21 -255.5q0 -323 108 -467t338 -144q102 0 179 28t128 78.5t82.5 127.5t44.5 169t13 210q0 321 -109 463q-108 141 -338 141z" />
    <glyph glyph-name="ohorn" unicode="&#x1a1;" horiz-adv-x="1081" 
d="M963 1165q65 0 104 -45.5t39 -115.5q0 -194 -193 -302q33 -90 33 -227q0 -495 -440 -495q-217 0 -322.5 129.5t-105.5 365.5t107.5 363t328.5 127q265 0 371 -195q92 53 92 117q0 14 -5 24.5t-17 19t-20 13t-26 12.5q-67 34 -67 99q0 53 33.5 81.5t87.5 28.5zM766 475
l-2 -2q0 76 -6.5 134.5t-24 112t-46.5 88t-75 55t-108 20.5q-132 0 -191 -92q-57 -89 -57 -316q0 -226 59 -321t189 -95q132 0 196 99q66 101 66 317z" />
    <glyph glyph-name="uni01A2" unicode="&#x1a2;" horiz-adv-x="1892" 
d="M74 655q0 349 174 525t520 176l410 -15h501v-1703l172 -27v-53h-534v53l172 27v1613h-246v-1181q-272 -90 -495 -90q-319 0 -496.5 177.5t-177.5 497.5zM748 57q76 0 168.5 20.5t136.5 47.5v1126q-195 25 -277 25q-136 0 -232.5 -42t-153 -124t-82 -193t-25.5 -260
q0 -136 26 -243.5t80 -188.5t145 -124.5t214 -43.5z" />
    <glyph glyph-name="uni01A3" unicode="&#x1a3;" horiz-adv-x="1415" 
d="M514 965q26 0 175 -12.5t175 -12.5h404v-1305l102 -24v-47h-397v47l129 24v1219h-156v-379q0 -495 -440 -495q-217 0 -322.5 129.5t-105.5 365.5t107.5 363t328.5 127zM506 59l-2 -2q132 0 196 99q66 101 66 317v379q-155 31 -260 31q-132 0 -191 -92q-57 -89 -57 -316
q0 -226 59 -321t189 -95z" />
    <glyph glyph-name="uni01A4" unicode="&#x1a4;" horiz-adv-x="1329" 
d="M729 616q173 0 252.5 78t79.5 250q0 169 -79 238t-257 69h-98v-635h102zM1260 946h-3q0 -211 -127 -315.5t-356 -104.5h-149v-446l213 -27v-53h-566v53l158 27v1171h-53q-83 0 -130 -23.5t-71 -80.5l-51 -121h-66l7 266q94 49 288 49h414q492 0 492 -395z" />
    <glyph glyph-name="uni01A5" unicode="&#x1a5;" horiz-adv-x="1024" 
d="M764 481h-2q0 86 -12 151.5t-39.5 118.5t-78 81t-122.5 28q-122 0 -195 -33v-751q100 -17 197 -17q252 0 252 422zM150 1010l-5 -6q0 127 31 221t103.5 152.5t181.5 58.5q73 0 141 -19v-205h-49l-45 123q-34 21 -80 21q-64 0 -88 -56q-25 -58 -25 -208q0 -126 -6 -209
q42 36 112 58t144 22q97 0 170 -35.5t118 -101t67 -152.5t22 -195q0 -233 -105 -367.5t-313 -134.5q-103 0 -215 23q6 -70 6 -111v-254l164 -24v-47h-448v47l119 24v1375z" />
    <glyph glyph-name="uni01A6" unicode="&#x1a6;" horiz-adv-x="1138" 
d="M600 483q175 0 253.5 64.5t78.5 226.5q0 161 -78 222t-258 61h-172v-574h176zM1130 788q0 -139 -76.5 -234t-199.5 -132l385 -567l145 -27v-53h-321l-397 618h-242v-313l203 -27v-53h-555v53l159 27v1182l-172 26v53h568v-53l-203 -26v-115h215q117 0 203.5 -17t153 -57
t100.5 -111.5t34 -173.5z" />
    <glyph glyph-name="uni01A7" unicode="&#x1a7;" horiz-adv-x="1138" 
d="M295 330l6 -2q0 -130 79.5 -199.5t217.5 -69.5q84 0 173 36t130 83l35 180h65v-309q-82 -32 -193 -52t-218 -20q-217 0 -339 104t-122 304q0 235 209 340q58 31 274 104q109 40 166 97q56 56 56 139q0 102 -80 153.5t-205 51.5q-149 0 -252 -74l-37 -164h-63v279
q188 43 352 43q130 0 229.5 -35t161 -113.5t61.5 -193.5q0 -49 -8.5 -91t-27.5 -75.5t-39.5 -60.5t-54 -50t-60.5 -39.5t-70.5 -34t-72 -27.5t-76.5 -26.5t-74 -25.5q-139 -50 -192 -136q-31 -48 -31 -116z" />
    <glyph glyph-name="uni01A8" unicode="&#x1a8;" horiz-adv-x="796" 
d="M702 27l-4 2q-44 -18 -132 -32.5t-154 -14.5q-351 0 -351 284q0 167 146 240q62 28 190 72q75 26 115.5 61.5t40.5 99.5q0 71 -45 109.5t-121 38.5q-113 0 -166 -47l-41 -109h-47v205q161 31 258 31q138 0 226 -70t88 -197q0 -132 -99 -204q-46 -34 -143 -68l-90 -29
q-154 -53 -154 -174q0 -166 195 -166q120 0 194 68l49 131h45v-231z" />
    <glyph glyph-name="uni01A9" unicode="&#x1a9;" horiz-adv-x="1191" 
d="M678 748l2 -52l-404 -526h263q364 0 430 16l57 189h66l-21 -375h-989v74l438 571l-430 617v79h922v-321h-68l-41 217q-106 14 -307 14h-266z" />
    <glyph glyph-name="uni01AA" unicode="&#x1aa;" horiz-adv-x="702" 
d="M4 1229h6q0 83 60 143t143 60q168 0 238 -183q34 -87 34 -219v-1126q0 -148 25 -209q23 -57 90 -57q47 0 80 20l45 123h47v-205q-64 -18 -141 -18q-160 0 -238 119t-78 313v1069q-47 -33 -108 -33q-83 0 -143 60t-60 143zM90 1229q0 -51 36.5 -87t86.5 -36t86.5 36
t36.5 87t-36 87t-87 36t-87 -36t-36 -87z" />
    <glyph glyph-name="uni01AB" unicode="&#x1ab;" horiz-adv-x="567" 
d="M309 215q0 -60 27 -95.5t80 -35.5q56 0 155 18v-141q0 -185 -71 -291t-226 -106q-64 0 -147 18v199h47l29 -109q36 -28 82 -28q61 0 90 63q31 67 31 203v80q-30 -10 -72 -10q-96 0 -143.5 57t-47.5 160v659h-123v45l125 39l101 213h63v-213h215v-84h-215v-641z" />
    <glyph glyph-name="uni01AC" unicode="&#x1ac;" horiz-adv-x="1249" 
d="M1217 1026h-70l-27 209q-90 18 -352 18h-49v-1173l213 -27v-53h-619v53l213 27v1173h-202q-83 0 -130 -24t-71 -82l-49 -121h-68l6 266q94 49 289 49h916v-315z" />
    <glyph glyph-name="uni01AD" unicode="&#x1ad;" horiz-adv-x="567" 
d="M473 1442l-2 -2q104 0 231 -43v-226h-90l-92 168q-35 21 -80 21q-75 0 -102 -55q-29 -60 -29 -209v-156h215v-84h-215v-641q0 -60 27 -95.5t80 -35.5t141 16v-65q-31 -23 -98.5 -39t-124.5 -16q-96 0 -143.5 57t-47.5 160v659h-123v45l123 39v70q0 98 18.5 175t57 135.5
t103 90t151.5 31.5z" />
    <glyph glyph-name="uni01AE" unicode="&#x1ae;" horiz-adv-x="1249" 
d="M721 -168q0 -191 141 -188q94 0 131 49l31 137h66v-244q-82 -31 -207 -28q-111 0 -193.5 60.5t-120.5 154.5q-41 103 -41 235v1247h-51q-259 0 -346 -20l-27 -209h-67v315h1180v-315h-68l-27 209q-90 18 -352 18h-49v-1421z" />
    <glyph glyph-name="Uhorn" unicode="&#x1af;" horiz-adv-x="1587" 
d="M1442 1462h-2q65 0 104 -46t39 -116q0 -118 -80 -210q-81 -94 -241 -142v-487q0 -242 -132.5 -361.5t-384.5 -119.5q-254 0 -393 115.5t-139 346.5v820l-172 26v53h537v-53l-172 -26v-805q0 -365 354 -365q190 0 293.5 90.5t103.5 270.5v809l-180 26v53h285v-317
q103 35 147 76q47 44 47 82q0 18 -10.5 32.5t-22.5 21.5t-34 17q-68 35 -68 99q0 53 33.5 81.5t87.5 28.5z" />
    <glyph glyph-name="uhorn" unicode="&#x1b0;" horiz-adv-x="1107" 
d="M1022 1165l-4 2q65 0 103 -45t38 -116q0 -112 -72 -205q-70 -91 -221 -144v-587l119 -25v-45h-274l-9 76q-65 -36 -156 -66t-161 -30q-240 0 -240 276v614l-120 25v45h286v-672q0 -172 160 -172q122 0 234 31v743l-142 25v45h307v-205q86 35 125 74t39 78q0 18 -10 32
t-21 20.5t-34 16.5q-67 34 -70 99q0 52 34.5 81t88.5 29z" />
    <glyph glyph-name="uni01B1" unicode="&#x1b1;" horiz-adv-x="1521" 
d="M315 541q0 -244 107 -359.5t340 -115.5q231 0 337.5 116.5t106.5 358.5q0 197 -91 316.5t-261 141.5l-27 344h570l18 -329h-65l-58 143q-90 17 -284 17h-72l10 -103q208 -32 338.5 -172t130.5 -356q0 -282 -170.5 -418.5t-482.5 -136.5q-313 0 -484.5 136.5t-171.5 418.5
q0 216 131 356t338 172l11 103h-72q-195 0 -285 -17l-57 -143h-66l21 329h567l-26 -344q-170 -22 -261.5 -141.5t-91.5 -316.5z" />
    <glyph glyph-name="uni01B2" unicode="&#x1b2;" horiz-adv-x="1478" 
d="M1264 461h4q0 -242 -132 -361.5t-384 -119.5q-254 0 -393.5 115.5t-139.5 346.5v820l-172 26v53h537v-53l-172 -26v-805q0 -365 354 -365q190 0 293.5 90.5t103.5 270.5v632q0 191 -131 191q-30 0 -59.5 -15t-46.5 -34l-35 -140h-78v244q91 31 197 31q141 0 197.5 -77.5
t56.5 -235.5v-588z" />
    <glyph glyph-name="uni01B3" unicode="&#x1b3;" horiz-adv-x="1597" 
d="M1495 1081l-29 152q-30 21 -84 18q-58 0 -104 -37q-45 -36 -88 -106l-350 -582v-448l213 -27v-53h-619v53l213 27v442l-471 740l-151 26v53h567v-53l-180 -26l385 -619l303 508q65 109 135 158t160 49q87 0 166 -27v-248h-66z" />
    <glyph glyph-name="uni01B4" unicode="&#x1b4;" horiz-adv-x="1024" 
d="M1382 1196h-55l-39 111q-33 20 -76 20q-70 0 -114 -41q-44 -40 -78 -123l-475 -1220q-67 -172 -113 -238q-46 -69 -100.5 -107t-136.5 -38q-77 0 -154 18v203h47l33 -96q33 -23 86 -23q76 0 135 62q60 63 109 194l26 72l-358 880l-96 25v45h436v-45l-148 -27l254 -657
l363 963q43 116 114 181.5t189 65.5q87 0 151 -18v-207z" />
    <glyph glyph-name="uni01B5" unicode="&#x1b5;" horiz-adv-x="1249" 
d="M98 94l371 572h-295v84h348l328 505h-250q-253 0 -340 -20l-31 -211h-69v317h913v-86l-328 -505h293v-84h-348l-375 -582h291q92 0 215.5 10t188.5 23l59 256h70l-27 -373h-1014v94z" />
    <glyph glyph-name="uni01B6" unicode="&#x1b6;" horiz-adv-x="907" 
d="M500 442l-230 -362h275q55 0 119 13t90 34l51 197h47l-25 -324h-772v45l250 397h-207v84h260l213 334h-221q-53 0 -106 -9t-74 -26l-31 -135h-47v250h694v-49l-231 -365h207v-84h-262z" />
    <glyph glyph-name="uni01B7" unicode="&#x1b7;" horiz-adv-x="1103" 
d="M1040 111h2q0 -263 -157 -408t-430 -145q-214 0 -406 63l-4 316h68l24 -201q46 -45 129 -73t174 -28q198 0 294.5 127t96.5 351q0 238 -108 363.5t-330 125.5h-110v78l426 575h-172q-233 0 -312 -20l-28 -211h-70v317h817v-81l-432 -582q250 -15 389 -162.5t139 -404.5z
" />
    <glyph glyph-name="uni01B8" unicode="&#x1b8;" horiz-adv-x="1103" 
d="M272 113h4q0 -224 96.5 -351t295.5 -127q91 0 174 28t129 73l24 201h68l-4 -316q-192 -63 -406 -63q-274 0 -430.5 144.5t-156.5 408.5q0 257 139 402.5t389 164.5l-432 582v81h817v-317h-70l-28 211q-84 20 -314 20h-172l426 -575v-78h-110q-221 0 -330 -126t-109 -363z
" />
    <glyph glyph-name="uni01B9" unicode="&#x1b9;" horiz-adv-x="907" 
d="M877 -367h2q-48 -35 -135 -55t-179 -20q-456 0 -456 440q0 172 78.5 277.5t224.5 138.5l-342 477v49h766v-250h-48l-30 135q-46 35 -180 35h-283l332 -465v-45h-72q-267 0 -264 -350q0 -179 78.5 -259.5t255.5 -80.5q142 0 252 35v-62z" />
    <glyph glyph-name="uni01BA" unicode="&#x1ba;" horiz-adv-x="907" 
d="M838 -367q-48 -35 -135 -55t-179 -20q-446 0 -446 333q0 75 28.5 134t80 97.5t116 60.5t143.5 30q113 12 164 41q47 27 47 86q0 43 -21.5 71.5t-62.5 42t-83.5 18.5t-100.5 5h-70v45l332 336h-282q-53 0 -106.5 -9t-74.5 -26l-30 -135h-47v250h766v-49l-342 -346
q303 -37 303 -203q0 -122 -125 -168q-65 -22 -197 -31q-126 -9 -190 -66t-64 -177q0 -131 82 -184.5t242 -53.5q142 0 252 35v-62z" />
    <glyph glyph-name="uni01BB" unicode="&#x1bb;" horiz-adv-x="1024" 
d="M444 1356v4q207 0 324 -85.5t117 -264.5q0 -135 -64 -254h90v-82h-143q-55 -72 -125 -139q-113 -109 -248 -226l-172 -151h690v-154h-821v148l176 157q153 135 230 215q72 75 116 148h-446v82h485q42 104 45 252q0 133 -61 199.5t-191 66.5q-115 0 -208 -53l-35 -164h-66
v258q179 43 307 43z" />
    <glyph glyph-name="uni01BC" unicode="&#x1bc;" horiz-adv-x="1024" 
d="M924 399h2q0 -208 -125.5 -313.5t-349.5 -105.5q-193 0 -338 43l-13 282h68l45 -188q40 -23 102 -38.5t119 -15.5q163 0 235 78t72 248q0 162 -59.5 236.5t-204.5 74.5q-89 0 -166 -24h-96v586l-170 26v53h844v-385h-66l-32 218q-106 14 -326 14h-162v-428q102 24 209 24
q205 0 308.5 -93.5t103.5 -291.5z" />
    <glyph glyph-name="uni01BD" unicode="&#x1bd;" horiz-adv-x="907" 
d="M838 293h2q0 -161 -110.5 -237t-301.5 -76q-171 0 -309 30l-8 219h63l33 -131q29 -15 88.5 -27t105.5 -12q137 0 204 50.5t67 171.5q0 117 -58 161.5t-188 44.5q-72 0 -154 -16h-67v371l-152 35v63h766v-332h-65l-33 174q-114 15 -326 15h-102v-242q91 16 172 16
q167 0 270 -69.5t103 -208.5z" />
    <glyph glyph-name="uni01BE" unicode="&#x1be;" horiz-adv-x="862" 
d="M438 2l2 -4q-60 0 -146.5 15t-139.5 32v231h45l49 -131q76 -67 196 -67q195 0 195 166q0 89 -76 137q-37 23 -160 65q-134 46 -184 111q-49 64 -49 160v135h-125v45l125 39l102 213h64v-213h215v-84h-215v-100q0 -81 72 -125q35 -21 153 -64q129 -47 178 -110
q49 -64 49 -166q0 -285 -350 -285z" />
    <glyph glyph-name="uni01BF" unicode="&#x1bf;" horiz-adv-x="1024" 
d="M662 965q142 0 217 -102t75 -265q0 -460 -637 -672v-368h-323v45l158 24v1243l-154 25v45h319v-201q136 226 345 226zM788 596q0 111 -50 184.5t-142 73.5q-81 0 -162 -66q-42 -31 -117 -118v-670q229 88 351 240q120 150 120 356z" />
    <glyph glyph-name="uni01C0" unicode="&#x1c0;" horiz-adv-x="409" 
d="M254 0h-98v1421h98v-1421z" />
    <glyph glyph-name="uni01C1" unicode="&#x1c1;" horiz-adv-x="573" 
d="M438 0h-96v1421h96v-1421zM233 0h-98v1421h98v-1421z" />
    <glyph glyph-name="uni01C2" unicode="&#x1c2;" horiz-adv-x="509" 
d="M498 504h-195v-504h-96v504h-195v84h195v180h-195v86h195v567h96v-567h195v-86h-195v-180h195v-84z" />
    <glyph glyph-name="uni01C3" unicode="&#x1c3;" horiz-adv-x="681" 
d="M340 213q51 0 86 -35t35 -86q0 -50 -35 -85.5t-86 -35.5t-86 35.5t-35 85.5q0 51 35 86t86 35zM231 1341h218l-62 -952h-94z" />
    <glyph glyph-name="uni01C4" unicode="&#x1c4;" horiz-adv-x="2729" 
d="M709 86h2q131 0 224 39.5t148.5 118t81 185.5t25.5 251q0 279 -151 425t-433 146h-180v-1157q107 -8 283 -8zM1399 678q0 -339 -173 -510.5t-515 -171.5l-478 4h-172v53l172 27v1182l-172 26v53h609q361 0 545 -161.5t184 -501.5zM1579 94l752 1161h-250q-253 0 -340 -20
l-31 -211h-70v317h914v-86l-758 -1171h291q91 0 214.5 10t188.5 23l60 256h69l-26 -373h-1014v94zM1843 1759l268 -184l269 184h55v-33l-217 -274h-213l-217 274v33h55z" />
    <glyph glyph-name="uni01C5" unicode="&#x1c5;" horiz-adv-x="2387" 
d="M709 86h2q131 0 224 39.5t148.5 118t81 185.5t25.5 251q0 279 -151 425t-433 146h-180v-1157q107 -8 283 -8zM1399 678q0 -339 -173 -510.5t-515 -171.5l-478 4h-172v53l172 27v1182l-172 26v53h609q361 0 545 -161.5t184 -501.5zM1536 0v45l516 815h-221q-53 0 -106 -9
t-74 -26l-31 -135h-47v250h694v-49l-516 -811h274q55 0 119 13t90 34l52 197h47l-25 -324h-772zM1683 1425l269 -184l268 184h55v-32l-217 -275h-213l-217 275v32h55z" />
    <glyph glyph-name="uni01C6" unicode="&#x1c6;" horiz-adv-x="1931" 
d="M74 461q0 240 106 372t324 132q97 0 219 -23q-6 35 -6 166v244l-158 24v45h324v-1351l116 -25v-45h-264l-12 70q-116 -90 -264 -90q-385 0 -385 481zM254 461q0 -86 12.5 -152t41.5 -118t81 -79.5t125 -27.5q118 0 203 39v743q-100 17 -203 17q-260 0 -260 -422zM1079 0
v45l516 815h-221q-53 0 -106 -9t-74 -26l-31 -135h-47v250h694v-49l-516 -811h275q55 0 119 13t90 34l51 197h47l-25 -324h-772zM1227 1425l268 -184l268 184h56v-32l-217 -275h-213l-218 275v32h56z" />
    <glyph glyph-name="uni01C7" unicode="&#x1c7;" horiz-adv-x="2048" 
d="M631 1288l-207 -26v-1176h264q216 0 313 20l62 279h65l-18 -385h-1051v53l172 27v1182l-172 26v53h572v-53zM1661 1262l-174 26v53h516v-53l-152 -26v-830q0 -280 -165 -395q-80 -57 -185 -57q-127 0 -207 30v244h66l31 -139q40 -49 131 -49q139 0 139 190v1006z" />
    <glyph glyph-name="uni01C8" unicode="&#x1c8;" horiz-adv-x="1818" 
d="M631 1288l-207 -26v-1176h264q216 0 313 20l62 279h65l-18 -385h-1051v53l172 27v1182l-172 26v53h572v-53zM1536 1356q43 0 76 -32.5t33 -76.5q0 -43 -32.5 -75.5t-76.5 -32.5t-76.5 32t-32.5 76t32.5 76.5t76.5 32.5zM1634 -39h-4q0 -184 -71.5 -290.5t-225.5 -106.5
q-63 0 -145 18v199h47l27 -109q36 -28 86 -28q61 0 90 63q30 65 30 203v960l-141 25v45h307v-979z" />
    <glyph glyph-name="uni01C9" unicode="&#x1c9;" horiz-adv-x="1136" 
d="M367 70l161 -25v-45h-487v45l160 25v1282l-160 24v45h326v-1351zM854 1356q43 0 76 -32.5t33 -76.5q0 -43 -32.5 -75.5t-76.5 -32.5t-76.5 32t-32.5 76t32.5 76.5t76.5 32.5zM952 -39h-4q0 -184 -71.5 -290.5t-225.5 -106.5q-63 0 -145 18v199h47l27 -109q36 -28 86 -28
q61 0 90 63q30 65 30 203v960l-141 25v45h307v-979z" />
    <glyph glyph-name="uni01CA" unicode="&#x1ca;" horiz-adv-x="2275" 
d="M1155 1262l-180 26v53h457v-53l-172 -26v-1262h-97l-827 1206v-1126l180 -27v-53h-457v53l172 27v1182l-172 26v53h406l690 -993v914zM1888 1262l-174 26v53h516v-53l-151 -26v-830q0 -279 -166 -395q-80 -57 -184 -57q-127 0 -207 30v244h65l31 -139q40 -49 131 -49
q139 0 139 190v1006z" />
    <glyph glyph-name="uni01CB" unicode="&#x1cb;" horiz-adv-x="2048" 
d="M1155 1262l-180 26v53h457v-53l-172 -26v-1262h-97l-827 1206v-1126l180 -27v-53h-457v53l172 27v1182l-172 26v53h406l690 -993v914zM1763 1356q43 0 76 -32.5t33 -76.5q0 -43 -32.5 -75.5t-76.5 -32.5t-76 32t-32 76t32 76.5t76 32.5zM1862 -39h-4q0 -184 -71.5 -290.5
t-225.5 -106.5q-63 0 -146 18v199h47l27 -109q36 -28 86 -28q61 0 90 63q31 67 31 203v960l-142 25v45h308v-979z" />
    <glyph glyph-name="uni01CC" unicode="&#x1cc;" horiz-adv-x="1591" 
d="M713 670q0 178 -166 178q-79 0 -221 -29v-749l127 -25v-45h-406v45l113 25v800l-113 25v45h268l9 -76q183 101 309 101q246 0 246 -277v-618l114 -25v-45h-405v45l125 25v600zM1309 1356q43 0 75.5 -32.5t32.5 -76.5q0 -43 -32 -75.5t-76 -32.5t-76.5 32t-32.5 76
t32.5 76.5t76.5 32.5zM1407 -39h-4q0 -184 -71.5 -290.5t-225.5 -106.5q-62 0 -145 18v199h47l26 -109q36 -28 86 -28q61 0 90 63q31 67 31 203v960l-141 25v45h307v-979z" />
    <glyph glyph-name="Acaron" unicode="&#x1cd;" horiz-adv-x="1478" 
d="M461 53v-53h-441v53l152 27l457 1272h190l475 -1272l170 -27v-53h-567v53l180 27l-133 387h-528l-135 -387zM676 1208l-230 -651h467zM457 1759l268 -184l268 184h56v-33l-218 -274h-213l-217 274v33h56z" />
    <glyph glyph-name="acaron" unicode="&#x1ce;" horiz-adv-x="907" 
d="M598 696v-2q0 93 -33.5 141t-111.5 48q-102 0 -185 -47l-35 -117h-55v205q161 34 285 34q150 0 224.5 -60t74.5 -196v-634l117 -25v-45h-258l-19 94q-115 -115 -289 -115q-241 0 -241 281q0 82 26 138.5t79 88t119.5 45t160.5 15.5l141 4v147zM381 88v-2q112 0 217 55
v334l-131 -4q-128 -3 -178.5 -46.5t-50.5 -160.5q0 -176 143 -176zM186 1421l269 -184l268 184h55v-32l-217 -275h-213l-217 275v32h55z" />
    <glyph glyph-name="Icaron" unicode="&#x1cf;" horiz-adv-x="681" 
d="M438 80l172 -27v-53h-536v53l172 27v1182l-172 26v53h536v-53l-172 -26v-1182zM74 1759l268 -184l268 184h56v-33l-217 -274h-213l-218 274v33h56z" />
    <glyph glyph-name="icaron" unicode="&#x1d0;" horiz-adv-x="567" 
d="M369 70l161 -25v-45h-487v45l160 25v800l-133 25v45h299v-870zM20 1425l269 -184l268 184h55v-32l-217 -275h-213l-217 275v32h55z" />
    <glyph glyph-name="Ocaron" unicode="&#x1d1;" horiz-adv-x="1478" 
d="M739 1276v-2q-128 0 -216 -40t-138 -121t-71 -187.5t-21 -255.5q0 -323 108 -467t338 -144q102 0 179 28t128 78.5t82.5 127.5t44.5 169t13 210q0 321 -109 463q-108 141 -338 141zM739 -23q-324 0 -489.5 178.5t-165.5 514.5q0 684 655 684q326 0 491 -175t165 -509
q0 -336 -166 -514.5t-490 -178.5zM481 1757l269 -184l268 184h55v-33l-217 -274h-213l-217 274v33h55z" />
    <glyph glyph-name="ocaron" unicode="&#x1d2;" horiz-adv-x="1024" 
d="M514 965q219 0 325.5 -127t106.5 -363q0 -495 -440 -495q-217 0 -322.5 129.5t-105.5 365.5t107.5 363t328.5 127zM766 475q0 76 -6.5 134.5t-24 112t-46.5 88t-75 55t-108 20.5t-107 -20t-72 -54t-42.5 -88t-21 -111.5t-5.5 -136.5t5.5 -137.5t21 -113.5t42.5 -89.5
t72 -55t107 -20.5t108 20.5t75 56t46.5 90t24 114t6.5 135.5zM244 1425l268 -184l268 184h56v-32l-218 -275h-212l-218 275v32h56z" />
    <glyph glyph-name="Ucaron" unicode="&#x1d3;" horiz-adv-x="1478" 
d="M762 92q190 0 293.5 90.5t103.5 270.5v809l-180 26v53h457v-53l-172 -26v-801q0 -242 -132 -361.5t-384 -119.5q-254 0 -393.5 115.5t-139.5 346.5v820l-172 26v53h537v-53l-172 -26v-805q0 -365 354 -365zM467 1759l268 -184l269 184h55v-33l-217 -274h-213l-217 274v33
h55z" />
    <glyph glyph-name="ucaron" unicode="&#x1d4;" horiz-adv-x="1024" 
d="M707 76h-5q-65 -36 -156 -66t-161 -30q-240 0 -240 276v614l-120 25v45h286v-672q0 -172 160 -172q122 0 234 31v743l-142 25v45h307v-870l119 -25v-45h-274zM240 1425l268 -184l268 184h55v-32l-217 -275h-213l-217 275v32h56z" />
    <glyph glyph-name="uni01D5" unicode="&#x1d5;" horiz-adv-x="1478" 
d="M762 92q190 0 293.5 90.5t103.5 270.5v809l-180 26v53h457v-53l-172 -26v-801q0 -242 -132 -361.5t-384 -119.5q-254 0 -393.5 115.5t-139.5 346.5v820l-172 26v53h537v-53l-172 -26v-805q0 -365 354 -365zM451 1716v109h626v-109h-626zM924 1616q37 0 62.5 -26.5
t25.5 -63.5t-25.5 -63.5t-62.5 -26.5t-62.5 26.5t-25.5 63.5t25.5 63.5t62.5 26.5zM606 1616q37 0 62.5 -26.5t25.5 -63.5t-25.5 -63.5t-62.5 -26.5t-63.5 26.5t-26.5 63.5t26.5 63.5t63.5 26.5z" />
    <glyph glyph-name="uni01D6" unicode="&#x1d6;" horiz-adv-x="1024" 
d="M707 76h-5q-65 -36 -156 -66t-161 -30q-240 0 -240 276v614l-120 25v45h286v-672q0 -172 160 -172q122 0 234 31v743l-142 25v45h307v-870l119 -25v-45h-274zM686 1264q42 0 70 -29t28 -72q0 -41 -28.5 -70.5t-69.5 -29.5t-70.5 30t-29.5 70q0 43 28.5 72t71.5 29z
M330 1264q42 0 70 -29t28 -72t-27.5 -71.5t-70.5 -28.5q-40 0 -70.5 30t-30.5 70q0 41 30.5 71t70.5 30zM193 1360v108h628v-108h-628z" />
    <glyph glyph-name="uni01D7" unicode="&#x1d7;" horiz-adv-x="1478" 
d="M762 92q190 0 293.5 90.5t103.5 270.5v809l-180 26v53h457v-53l-172 -26v-801q0 -242 -132 -361.5t-384 -119.5q-254 0 -393.5 115.5t-139.5 346.5v820l-172 26v53h537v-53l-172 -26v-805q0 -365 354 -365zM721 1589v23l100 203h170v-27l-237 -199h-33zM604 1384
q-36 0 -62 27t-26 64t25.5 62.5t62.5 25.5t62.5 -25.5t25.5 -62.5t-26 -64t-62 -27zM922 1384q-36 0 -62 27t-26 64t25.5 62.5t62.5 25.5t63.5 -25.5t26.5 -62.5t-26.5 -64t-63.5 -27z" />
    <glyph glyph-name="uni01D8" unicode="&#x1d8;" horiz-adv-x="1024" 
d="M707 76h-5q-65 -36 -156 -66t-161 -30q-240 0 -240 276v614l-120 25v45h286v-672q0 -172 160 -172q122 0 234 31v743l-142 25v45h307v-870l119 -25v-45h-274zM686 1264q42 0 70 -29t28 -72q0 -41 -28.5 -70.5t-69.5 -29.5t-70.5 30t-29.5 70q0 43 28.5 72t71.5 29z
M330 1264q42 0 70 -29t28 -72t-27.5 -71.5t-70.5 -28.5q-40 0 -70.5 30t-30.5 70q0 41 30.5 71t70.5 30zM373 1343v33l196 273h213v-37l-354 -269h-55z" />
    <glyph glyph-name="uni01D9" unicode="&#x1d9;" horiz-adv-x="1478" 
d="M762 92q190 0 293.5 90.5t103.5 270.5v809l-180 26v53h457v-53l-172 -26v-801q0 -242 -132 -361.5t-384 -119.5q-254 0 -393.5 115.5t-139.5 346.5v820l-172 26v53h537v-53l-172 -26v-805q0 -365 354 -365zM924 1563q37 0 62.5 -25.5t25.5 -62.5t-26 -64t-62 -27t-62 27
t-26 64t25.5 62.5t62.5 25.5zM606 1563q37 0 62.5 -25.5t25.5 -62.5t-26 -64t-62 -27q-37 0 -63.5 27t-26.5 64t26.5 62.5t63.5 25.5zM537 1815l227 -123l227 123h58v-33l-189 -193h-192l-189 193v33h58z" />
    <glyph glyph-name="uni01DA" unicode="&#x1da;" horiz-adv-x="1024" 
d="M707 76h-5q-65 -36 -156 -66t-161 -30q-240 0 -240 276v614l-120 25v45h286v-672q0 -172 160 -172q122 0 234 31v743l-142 25v45h307v-870l119 -25v-45h-274zM686 1264q42 0 70 -29t28 -72q0 -41 -28.5 -70.5t-69.5 -29.5t-70.5 30t-29.5 70q0 43 28.5 72t71.5 29z
M330 1264q42 0 70 -29t28 -72t-27.5 -71.5t-70.5 -28.5q-40 0 -70.5 30t-30.5 70q0 41 30.5 71t70.5 30zM240 1651l268 -185l268 185h55v-33l-217 -275h-213l-217 275v33h56z" />
    <glyph glyph-name="uni01DB" unicode="&#x1db;" horiz-adv-x="1478" 
d="M762 92q190 0 293.5 90.5t103.5 270.5v809l-180 26v53h457v-53l-172 -26v-801q0 -242 -132 -361.5t-384 -119.5q-254 0 -393.5 115.5t-139.5 346.5v820l-172 26v53h537v-53l-172 -26v-805q0 -365 354 -365zM774 1589l-237 199v27h170l100 -203v-23h-33zM924 1563
q37 0 62.5 -25.5t25.5 -62.5t-26 -64t-62 -27t-62 27t-26 64t25.5 62.5t62.5 25.5zM606 1563q37 0 62.5 -25.5t25.5 -62.5t-26 -64t-62 -27q-37 0 -63.5 27t-26.5 64t26.5 62.5t63.5 25.5z" />
    <glyph glyph-name="uni01DC" unicode="&#x1dc;" horiz-adv-x="1024" 
d="M707 76h-5q-65 -36 -156 -66t-161 -30q-240 0 -240 276v614l-120 25v45h286v-672q0 -172 160 -172q122 0 234 31v743l-142 25v45h307v-870l119 -25v-45h-274zM686 1264q42 0 70 -29t28 -72q0 -41 -28.5 -70.5t-69.5 -29.5t-70.5 30t-29.5 70q0 43 28.5 72t71.5 29z
M330 1264q42 0 70 -29t28 -72t-27.5 -71.5t-70.5 -28.5q-40 0 -70.5 30t-30.5 70q0 41 30.5 71t70.5 30zM584 1343l-355 269v37h213l197 -273v-33h-55z" />
    <glyph glyph-name="uni01DD" unicode="&#x1dd;" horiz-adv-x="907" 
d="M829 469q0 -232 -96.5 -360.5t-300.5 -128.5q-360 0 -360 409v82h577v18q0 184 -65.5 277.5t-225.5 93.5q-52 0 -129.5 -9t-119.5 -20v58q48 32 133.5 54t165.5 22q227 0 324 -121.5t97 -374.5zM432 59l-2 -2q215 0 215 332h-401q0 -177 47 -254q46 -76 141 -76z" />
    <glyph glyph-name="uni01DE" unicode="&#x1de;" horiz-adv-x="1478" 
d="M461 53v-53h-441v53l152 27l457 1272h190l475 -1272l170 -27v-53h-567v53l180 27l-133 387h-528l-135 -387zM676 1208l-230 -651h467zM410 1716v109h626v-109h-626zM883 1616q37 0 62.5 -26.5t25.5 -63.5t-25.5 -63.5t-62.5 -26.5t-62.5 26.5t-25.5 63.5t25.5 63.5
t62.5 26.5zM565 1616q37 0 62.5 -26.5t25.5 -63.5t-25.5 -63.5t-62.5 -26.5t-63.5 26.5t-26.5 63.5t26.5 63.5t63.5 26.5z" />
    <glyph glyph-name="uni01DF" unicode="&#x1df;" horiz-adv-x="907" 
d="M598 696v-2q0 93 -33.5 141t-111.5 48q-102 0 -185 -47l-35 -117h-55v205q161 34 285 34q150 0 224.5 -60t74.5 -196v-634l117 -25v-45h-258l-19 94q-115 -115 -289 -115q-241 0 -241 281q0 82 26 138.5t79 88t119.5 45t160.5 15.5l141 4v147zM381 88v-2q112 0 217 55
v334l-131 -4q-128 -3 -178.5 -46.5t-50.5 -160.5q0 -176 143 -176zM635 1260q42 0 70 -29t28 -72q0 -41 -28.5 -70.5t-69.5 -29.5t-70.5 30t-29.5 70q0 43 28.5 72t71.5 29zM279 1260q42 0 70 -29t28 -72t-27.5 -71.5t-70.5 -28.5q-40 0 -70.5 30t-30.5 70q0 41 30.5 71
t70.5 30zM141 1356v108h629v-108h-629z" />
    <glyph glyph-name="uni01E0" unicode="&#x1e0;" horiz-adv-x="1478" 
d="M461 53v-53h-441v53l152 27l457 1272h190l475 -1272l170 -27v-53h-567v53l180 27l-133 387h-528l-135 -387zM676 1208l-230 -651h467zM410 1716v109h626v-109h-626zM723 1647q44 0 76 -32.5t32 -76.5q0 -43 -32 -75.5t-76 -32.5q-43 0 -76 32t-33 76t33 76.5t76 32.5z
" />
    <glyph glyph-name="uni01E1" unicode="&#x1e1;" horiz-adv-x="907" 
d="M598 696v-2q0 93 -33.5 141t-111.5 48q-102 0 -185 -47l-35 -117h-55v205q161 34 285 34q150 0 224.5 -60t74.5 -196v-634l117 -25v-45h-258l-19 94q-115 -115 -289 -115q-241 0 -241 281q0 82 26 138.5t79 88t119.5 45t160.5 15.5l141 4v147zM381 88v-2q112 0 217 55
v334l-131 -4q-128 -3 -178.5 -46.5t-50.5 -160.5q0 -176 143 -176zM455 1276q44 0 77 -32.5t33 -76.5q0 -43 -33 -75.5t-77 -32.5q-43 0 -75 32t-32 76t32 76.5t75 32.5zM141 1384v109h629v-109h-629z" />
    <glyph glyph-name="uni01E2" unicode="&#x1e2;" horiz-adv-x="1820" 
d="M731 53l154 27v387h-412l-207 -387l158 -27v-53h-401v53l135 27l647 1190l-164 18v53h995v-321h-65l-33 217q-106 14 -326 14h-137v-524h281l30 160h64v-412h-64l-30 162h-281v-547h182q253 0 338 16l58 248h65l-18 -354h-969v53zM885 557v674l-363 -674h363zM776 1475
v108h629v-108h-629z" />
    <glyph glyph-name="uni01E3" unicode="&#x1e3;" horiz-adv-x="1363" 
d="M946 965v-2q179 0 265.5 -106.5t86.5 -303.5v-82h-534v-90q3 -159 56 -229t192 -70q48 0 125.5 9.5t122.5 19.5v-56q-52 -34 -131 -56t-158 -22q-231 0 -322 129q-144 -129 -338 -129q-241 0 -241 281q0 82 26 138.5t79 88t119.5 45t160.5 15.5l141 4v147q0 93 -33.5 141
t-111.5 48q-102 0 -185 -47l-35 -117h-55v205q166 35 285 35q168 0 239 -74q90 78 246 78zM625 156q-10 21 -18.5 71.5t-8.5 87.5v160l-131 -4q-128 -3 -178.5 -46.5t-50.5 -160.5q0 -176 143 -176q114 0 244 68zM1124 551h-2q0 73 -7 127.5t-25.5 103.5t-55 75t-90.5 26
q-93 0 -137 -74q-43 -73 -43 -258h360zM375 1139v108h629v-108h-629z" />
    <glyph glyph-name="uni01E4" unicode="&#x1e4;" horiz-adv-x="1478" 
d="M776 57h-2q81 0 176.5 20t141.5 48v154h-269v83h269v144l-172 26v54h495v-54l-131 -26v-144h131v-83h-131v-209q-268 -90 -510 -90q-326 0 -508 176.5t-182 498.5q0 349 174 525t520 176q237 0 471 -60v-288h-67l-27 166q-68 47 -164.5 74.5t-204.5 27.5
q-136 0 -232.5 -42t-153 -124t-82 -193t-25.5 -260q0 -139 27.5 -247t84.5 -188t150.5 -122.5t220.5 -42.5z" />
    <glyph glyph-name="uni01E5" unicode="&#x1e5;" horiz-adv-x="1024" 
d="M686 152h4q141 0 220 -61.5t79 -186.5l-4 -43h43v-84h-65q-49 -111 -174 -165t-304 -54q-80 0 -146 10.5t-122.5 34.5t-89.5 68.5t-35 105.5h-88v84h107q35 68 147 149q-54 16 -94.5 61.5t-40.5 102.5l158 178q-158 74 -158 291q0 160 102 241t279 81q36 0 97 -8t87 -17
l221 111l35 -43l-139 -144q67 -76 67 -221q0 -165 -99 -246.5t-277 -81.5q-84 0 -154 15l-63 -131q3 -22 45 -34.5t84 -12.5h278zM299 643q0 -126 45.5 -189t155.5 -63q111 0 155.5 62.5t44.5 189.5t-43.5 186.5t-154.5 59.5q-110 0 -156.5 -60.5t-46.5 -185.5zM834 -127
q0 121 -142 121h-364q-65 -56 -86 -133h589zM233 -223q7 -77 73.5 -108t178.5 -31q255 0 326 139h-578z" />
    <glyph glyph-name="Gcaron" unicode="&#x1e6;" horiz-adv-x="1478" 
d="M776 57h-2q81 0 176.5 20t141.5 48v381l-172 26v54h495v-54l-131 -26v-436q-268 -90 -510 -90q-326 0 -508 176.5t-182 498.5q0 349 174 525t520 176q237 0 471 -60v-288h-67l-27 166q-68 47 -164.5 74.5t-204.5 27.5q-136 0 -232.5 -42t-153 -124t-82 -193t-25.5 -260
q0 -139 27.5 -247t84.5 -188t150.5 -122.5t220.5 -42.5zM510 1759l268 -184l269 184h55v-33l-217 -274h-213l-217 274v33h55z" />
    <glyph glyph-name="gcaron" unicode="&#x1e7;" horiz-adv-x="1024" 
d="M502 965h2q36 0 97 -8t87 -17l221 111l35 -43l-139 -144q67 -76 67 -221q0 -165 -99 -246.5t-277 -81.5q-84 0 -154 15l-63 -131q3 -22 45 -34.5t84 -12.5h278q141 0 220 -61.5t79 -186.5q0 -215 -231 -303q-113 -43 -273 -43q-192 0 -295 59q-100 57 -100 166
q0 52 37 104q36 51 133 123q-54 16 -94.5 61.5t-40.5 102.5l158 178q-158 74 -158 291q0 160 102 241t279 81zM483 -362q73 0 134 13t110 40t76.5 73.5t27.5 108.5q0 121 -141 121h-364q-38 -33 -66.5 -87t-28.5 -108q0 -39 12.5 -68t34 -46.5t54.5 -28t68.5 -14.5t82.5 -4z
M297 643q0 -126 45.5 -189t155.5 -63q111 0 155.5 62.5t44.5 189.5t-43.5 186.5t-154.5 59.5q-110 0 -156.5 -60.5t-46.5 -185.5zM225 1425l269 -184l268 184h55v-32l-217 -275h-213l-217 275v32h55z" />
    <glyph glyph-name="Kcaron" unicode="&#x1e8;" horiz-adv-x="1478" 
d="M1354 1341v-53l-156 -26l-459 -449l574 -733l145 -27v-53h-328l-526 678l-180 -146v-452l192 -27v-53h-557v53l172 27v1182l-172 26v53h537v-53l-172 -26v-631l643 631l-133 26v53h420zM393 1759l269 -184l268 184h55v-33l-217 -274h-213l-217 274v33h55z" />
    <glyph glyph-name="kcaron" unicode="&#x1e9;" horiz-adv-x="1024" 
d="M344 453l385 415l-98 27v45h332v-45l-117 -23l-268 -274l344 -530l102 -23v-45h-385v45l86 25l-258 405l-123 -135v-270l100 -25v-45h-385v45l119 25v1282l-139 24v45h305v-968zM223 1800l269 -184l268 184h55v-33l-217 -274h-213l-217 274v33h55z" />
    <glyph glyph-name="uni01EA" unicode="&#x1ea;" horiz-adv-x="1478" 
d="M801 -162q0 -72 34.5 -112.5t102.5 -40.5q56 0 117 22v-63q-68 -47 -168 -47q-109 0 -170.5 56.5t-61.5 160.5q0 86 60 168q-312 6 -471.5 184t-159.5 506q0 684 655 684q326 0 491 -175t165 -509q0 -312 -140 -486.5t-419 -199.5q-38 -71 -35 -148zM739 1276v-2
q-128 0 -216 -40t-138 -121t-71 -187.5t-21 -255.5q0 -323 108 -467t338 -144q102 0 179 28t128 78.5t82.5 127.5t44.5 169t13 210q0 321 -109 463q-108 141 -338 141z" />
    <glyph glyph-name="uni01EB" unicode="&#x1eb;" horiz-adv-x="1024" 
d="M514 965v2q219 0 325.5 -127t106.5 -363q0 -443 -352 -489q-37 -75 -37 -148q0 -72 35.5 -112.5t103.5 -40.5q57 0 115 22v-63q-67 -46 -168 -49q-108 0 -168.5 56t-60.5 161q0 88 57 168q-199 10 -296 138t-97 355q0 236 107.5 363t328.5 127zM766 477l-2 -2
q0 76 -6.5 134.5t-24 112t-46.5 88t-75 55t-108 20.5q-132 0 -191 -92q-57 -89 -57 -316q0 -226 59 -321t189 -95q132 0 196 99q66 101 66 317z" />
    <glyph glyph-name="uni01EC" unicode="&#x1ec;" horiz-adv-x="1478" 
d="M801 -162h-2q0 -72 34.5 -112.5t102.5 -40.5q56 0 117 22v-63q-68 -47 -168 -47q-109 0 -170.5 56.5t-61.5 160.5q0 86 60 168q-311 6 -470 184t-159 506q0 684 655 684q326 0 491 -175t165 -509q0 -312 -140 -486.5t-419 -199.5q-38 -71 -35 -148zM737 1276v-2
q-128 0 -216 -40t-138 -121t-71 -187.5t-21 -255.5q0 -323 108 -467t338 -144q102 0 179 28t128 78.5t82.5 127.5t44.5 169t13 210q0 321 -109 463q-108 141 -338 141zM422 1473v108h629v-108h-629z" />
    <glyph glyph-name="uni01ED" unicode="&#x1ed;" horiz-adv-x="1024" 
d="M514 965v2q219 0 325.5 -127t106.5 -363q0 -443 -352 -489q-37 -75 -37 -148q0 -72 35.5 -112.5t103.5 -40.5q57 0 115 22v-63q-67 -46 -168 -49q-108 0 -168.5 56t-60.5 161q0 88 57 168q-199 10 -296 138t-97 355q0 236 107.5 363t328.5 127zM766 477l-2 -2
q0 76 -6.5 134.5t-24 112t-46.5 88t-75 55t-108 20.5q-132 0 -191 -92q-57 -89 -57 -316q0 -226 59 -321t189 -95q132 0 196 99q66 101 66 317zM195 1141v108h628v-108h-628z" />
    <glyph glyph-name="uni01EE" unicode="&#x1ee;" horiz-adv-x="1103" 
d="M1040 111h2q0 -263 -157 -408t-430 -145q-214 0 -406 63l-4 316h68l24 -201q46 -45 129 -73t174 -28q198 0 294.5 127t96.5 351q0 238 -108 363.5t-330 125.5h-110v78l426 575h-172q-233 0 -312 -20l-28 -211h-70v317h817v-81l-432 -582q250 -15 389 -162.5t139 -404.5z
M287 1759l268 -184l268 184h56v-33l-217 -274h-213l-218 274v33h56z" />
    <glyph glyph-name="uni01EF" unicode="&#x1ef;" horiz-adv-x="907" 
d="M852 16v-2q0 -217 -131 -337.5t-356 -120.5q-93 0 -188 20.5t-144 54.5v62q48 -14 130.5 -24.5t145.5 -10.5q188 0 275.5 79t87.5 261q0 162 -79.5 256t-230.5 94h-73v49l297 461h-254q-142 0 -180 -35l-31 -135h-47v250h739v-51l-321 -475q177 -26 268.5 -120.5
t91.5 -275.5zM174 1423l268 -184l269 184h55v-32l-217 -275h-213l-217 275v32h55z" />
    <glyph glyph-name="jcaron" unicode="&#x1f0;" horiz-adv-x="567" 
d="M383 -39h-4q0 -184 -71.5 -290.5t-225.5 -106.5q-62 0 -145 18v199h47l26 -109q36 -28 86 -28q61 0 90 63q31 67 31 203v960l-141 25v45h307v-979zM0 1425l268 -184l269 184h55v-32l-217 -275h-213l-217 275v32h55z" />
    <glyph glyph-name="uni01F1" unicode="&#x1f1;" horiz-adv-x="2729" 
d="M709 86h2q131 0 224 39.5t148.5 118t81 185.5t25.5 251q0 279 -151 425t-433 146h-180v-1157q107 -8 283 -8zM1399 678q0 -339 -173 -510.5t-515 -171.5l-478 4h-172v53l172 27v1182l-172 26v53h609q361 0 545 -161.5t184 -501.5zM1579 94l752 1161h-250q-253 0 -340 -20
l-31 -211h-70v317h914v-86l-758 -1171h291q91 0 214.5 10t188.5 23l60 256h69l-26 -373h-1014v94z" />
    <glyph glyph-name="uni01F2" unicode="&#x1f2;" horiz-adv-x="2387" 
d="M709 86h2q131 0 224 39.5t148.5 118t81 185.5t25.5 251q0 279 -151 425t-433 146h-180v-1157q107 -8 283 -8zM1399 678q0 -339 -173 -510.5t-515 -171.5l-478 4h-172v53l172 27v1182l-172 26v53h609q361 0 545 -161.5t184 -501.5zM1536 0v45l516 815h-221q-53 0 -106 -9
t-74 -26l-31 -135h-47v250h694v-49l-516 -811h274q55 0 119 13t90 34l52 197h47l-25 -324h-772z" />
    <glyph glyph-name="uni01F3" unicode="&#x1f3;" horiz-adv-x="1931" 
d="M74 461q0 240 106 372t324 132q97 0 219 -23q-6 35 -6 166v244l-158 24v45h324v-1351l116 -25v-45h-264l-12 70q-116 -90 -264 -90q-385 0 -385 481zM254 461q0 -86 12.5 -152t41.5 -118t81 -79.5t125 -27.5q118 0 203 39v743q-100 17 -203 17q-260 0 -260 -422zM1079 0
v45l516 815h-221q-53 0 -106 -9t-74 -26l-31 -135h-47v250h694v-49l-516 -811h275q55 0 119 13t90 34l51 197h47l-25 -324h-772z" />
    <glyph glyph-name="Gacute" unicode="&#x1f4;" horiz-adv-x="1478" 
d="M776 57h-2q81 0 176.5 20t141.5 48v381l-172 26v54h495v-54l-131 -26v-436q-268 -90 -510 -90q-326 0 -508 176.5t-182 498.5q0 349 174 525t520 176q237 0 471 -60v-288h-67l-27 166q-68 47 -164.5 74.5t-204.5 27.5q-136 0 -232.5 -42t-153 -124t-82 -193t-25.5 -260
q0 -139 27.5 -247t84.5 -188t150.5 -122.5t220.5 -42.5zM614 1452v33l197 272h213v-37l-354 -268h-56z" />
    <glyph glyph-name="gacute" unicode="&#x1f5;" horiz-adv-x="1024" 
d="M502 965h2q36 0 97 -8t87 -17l221 111l35 -43l-139 -144q67 -76 67 -221q0 -165 -99 -246.5t-277 -81.5q-84 0 -154 15l-63 -131q3 -22 45 -34.5t84 -12.5h278q141 0 220 -61.5t79 -186.5q0 -215 -231 -303q-113 -43 -273 -43q-192 0 -295 59q-100 57 -100 166
q0 52 37 104q36 51 133 123q-54 16 -94.5 61.5t-40.5 102.5l158 178q-158 74 -158 291q0 160 102 241t279 81zM483 -362q73 0 134 13t110 40t76.5 73.5t27.5 108.5q0 121 -141 121h-364q-38 -33 -66.5 -87t-28.5 -108q0 -39 12.5 -68t34 -46.5t54.5 -28t68.5 -14.5t82.5 -4z
M297 643q0 -126 45.5 -189t155.5 -63q111 0 155.5 62.5t44.5 189.5t-43.5 186.5t-154.5 59.5q-110 0 -156.5 -60.5t-46.5 -185.5zM422 1118v33l196 272h213v-37l-354 -268h-55z" />
    <glyph glyph-name="uni01F6" unicode="&#x1f6;" horiz-adv-x="1943" 
d="M1804 256q0 -141 -97 -208.5t-263 -67.5q-386 0 -389 276v389h-631v-565l172 -27v-53h-537v53l172 27v1182l-172 26v53h537v-53l-172 -26v-527h631v527l-172 26v53h536v-53l-172 -26v-994q0 -108 47 -158.5t150 -50.5q88 0 141 58.5t53 150.5v602l-120 25v45h286v-684z
" />
    <glyph glyph-name="uni01F7" unicode="&#x1f7;" horiz-adv-x="1146" 
d="M725 1356v-2q93 0 161.5 -37t109 -104.5t60 -153.5t19.5 -191q0 -302 -172 -526t-506 -356v-428h-362v53l170 27v1624l-170 26v53h362v-198q130 213 328 213zM877 856q0 142 -54 235t-166 93q-133 0 -260 -148v-954q225 103 352.5 297t127.5 477z" />
    <glyph glyph-name="uni01F8" unicode="&#x1f8;" horiz-adv-x="1478" 
d="M1155 1262l-180 26v53h457v-53l-172 -26v-1262h-97l-827 1206v-1126l180 -27v-53h-457v53l172 27v1182l-172 26v53h406l690 -993v914zM840 1526l-355 268v37h213l197 -272v-33h-55z" />
    <glyph glyph-name="uni01F9" unicode="&#x1f9;" horiz-adv-x="1024" 
d="M713 670q0 178 -166 178q-79 0 -221 -29v-749l127 -25v-45h-406v45l113 25v800l-113 25v45h268l9 -76q183 101 309 101q246 0 246 -277v-618l114 -25v-45h-405v45l125 25v600zM580 1118l-355 268v37h213l197 -272v-33h-55z" />
    <glyph glyph-name="Aringacute" unicode="&#x1fa;" horiz-adv-x="1478" 
d="M461 53v-53h-441v53l152 27l457 1272h190l475 -1272l170 -27v-53h-567v53l180 27l-133 387h-528l-135 -387zM676 1208l-230 -651h467zM723 1679q83 0 143 -59.5t60 -142.5t-60 -143t-143 -60t-143 60t-60 143t60 142.5t143 59.5zM723 1354q50 0 86.5 36t36.5 87t-36 86.5
t-87 35.5t-87 -35.5t-36 -86.5t36.5 -87t86.5 -36zM625 1704v33l196 272h213v-37l-354 -268h-55z" />
    <glyph glyph-name="aringacute" unicode="&#x1fb;" horiz-adv-x="907" 
d="M598 696v-2q0 93 -33.5 141t-111.5 48q-102 0 -185 -47l-35 -117h-55v205q161 34 285 34q150 0 224.5 -60t74.5 -196v-634l117 -25v-45h-258l-19 94q-115 -115 -289 -115q-241 0 -241 281q0 82 26 138.5t79 88t119.5 45t160.5 15.5l141 4v147zM381 88v-2q112 0 217 55
v334l-131 -4q-128 -3 -178.5 -46.5t-50.5 -160.5q0 -176 143 -176zM471 1479q83 0 143 -60t60 -143t-60 -143t-143 -60t-143 60t-60 143t60 143t143 60zM471 1153q50 0 86.5 36t36.5 87t-36 87t-87 36t-87 -36t-36 -87t36.5 -87t86.5 -36zM352 1526v33l197 272h213v-37
l-354 -268h-56z" />
    <glyph glyph-name="AEacute" unicode="&#x1fc;" horiz-adv-x="1820" 
d="M731 53l154 27v387h-412l-207 -387l158 -27v-53h-401v53l135 27l647 1190l-164 18v53h995v-321h-65l-33 217q-106 14 -326 14h-137v-524h281l30 160h64v-412h-64l-30 162h-281v-547h182q253 0 338 16l58 248h65l-18 -354h-969v53zM885 557v674l-363 -674h363zM989 1452
v33l197 272h213v-37l-355 -268h-55z" />
    <glyph glyph-name="aeacute" unicode="&#x1fd;" horiz-adv-x="1363" 
d="M946 965v-2q179 0 265.5 -106.5t86.5 -303.5v-82h-534v-90q3 -159 56 -229t192 -70q48 0 125.5 9.5t122.5 19.5v-56q-52 -34 -131 -56t-158 -22q-231 0 -322 129q-144 -129 -338 -129q-241 0 -241 281q0 82 26 138.5t79 88t119.5 45t160.5 15.5l141 4v147q0 93 -33.5 141
t-111.5 48q-102 0 -185 -47l-35 -117h-55v205q166 35 285 35q168 0 239 -74q90 78 246 78zM625 156q-10 21 -18.5 71.5t-8.5 87.5v160l-131 -4q-128 -3 -178.5 -46.5t-50.5 -160.5q0 -176 143 -176q114 0 244 68zM1124 551h-2q0 73 -7 127.5t-25.5 103.5t-55 75t-90.5 26
q-93 0 -137 -74q-43 -73 -43 -258h360zM569 1116v33l197 272h213v-37l-354 -268h-56z" />
    <glyph glyph-name="Oslashacute" unicode="&#x1fe;" horiz-adv-x="1478" 
d="M1395 672q0 -336 -166 -514t-490 -178q-258 0 -413 110l-121 -145h-119l170 205q-172 175 -172 522q0 684 655 684q260 0 418 -113l123 148h115l-170 -205q170 -179 170 -514zM739 1276l-2 2q-128 0 -216 -40t-138 -121t-71 -187.5t-21 -255.5q0 -255 65 -400l715 865
q-107 137 -332 137zM737 61h-2q102 0 179 28t128 78.5t82.5 127.5t44.5 169t13 210q0 244 -64 387l-712 -866q110 -134 331 -134zM623 1454v33l196 272h213v-37l-354 -268h-55z" />
    <glyph glyph-name="oslashacute" unicode="&#x1ff;" horiz-adv-x="1024" 
d="M78 475h-4q0 236 107.5 363t328.5 127q151 0 252 -64l84 121h104l-123 -174q117 -126 117 -373q0 -495 -440 -495q-145 0 -240 59l-86 -123h-108l127 178q-119 125 -119 381zM254 475v-2q0 -157 29 -252l405 578q-63 84 -186 84q-132 0 -191 -92q-57 -89 -57 -316z
M762 473h-2q0 145 -31 240l-405 -580q58 -76 176 -76q131 0 196 99q66 101 66 317zM397 1116v33l197 272h213v-37l-354 -268h-56z" />
    <glyph glyph-name="uni0200" unicode="&#x200;" horiz-adv-x="1478" 
d="M461 53v-53h-441v53l152 27l457 1272h190l475 -1272l170 -27v-53h-567v53l180 27l-133 387h-528l-135 -387zM676 1208l-230 -651h467zM952 1452l-293 268v37h193l156 -272v-33h-56zM600 1452l-291 268v37h193l155 -272v-33h-57z" />
    <glyph glyph-name="uni0201" unicode="&#x201;" horiz-adv-x="907" 
d="M598 696v-2q0 93 -33.5 141t-111.5 48q-102 0 -185 -47l-35 -117h-55v205q161 34 285 34q150 0 224.5 -60t74.5 -196v-634l117 -25v-45h-258l-19 94q-115 -115 -289 -115q-241 0 -241 281q0 82 26 138.5t79 88t119.5 45t160.5 15.5l141 4v147zM381 88v-2q112 0 217 55
v334l-131 -4q-128 -3 -178.5 -46.5t-50.5 -160.5q0 -176 143 -176zM682 1114l-293 268v37h193l155 -272v-33h-55zM330 1114l-291 268v37h192l156 -272v-33h-57z" />
    <glyph glyph-name="uni0202" unicode="&#x202;" horiz-adv-x="1478" 
d="M461 53v-53h-441v53l152 27l457 1272h190l475 -1272l170 -27v-53h-567v53l180 27l-133 387h-528l-135 -387zM676 1208l-230 -651h467zM438 1452q2 130 78 205.5t207 75.5q133 0 208.5 -75t80.5 -206h-74q-17 67 -73 103t-140 36t-140 -36t-73 -103h-74z" />
    <glyph glyph-name="uni0203" unicode="&#x203;" horiz-adv-x="907" 
d="M598 696v-2q0 93 -33.5 141t-111.5 48q-102 0 -185 -47l-35 -117h-55v205q161 34 285 34q150 0 224.5 -60t74.5 -196v-634l117 -25v-45h-258l-19 94q-115 -115 -289 -115q-241 0 -241 281q0 82 26 138.5t79 88t119.5 45t160.5 15.5l141 4v147zM381 88v-2q112 0 217 55
v334l-131 -4q-128 -3 -178.5 -46.5t-50.5 -160.5q0 -176 143 -176zM188 1114q2 130 78 205.5t207 75.5q133 0 208.5 -75t80.5 -206h-74q-17 67 -73 103t-140 36t-140 -36t-73 -103h-74z" />
    <glyph glyph-name="uni0204" unicode="&#x204;" horiz-adv-x="1249" 
d="M59 53l174 27v1182l-172 26v53h1006v-321h-66l-32 217q-106 14 -326 14h-219v-524h362l31 160h64v-412h-64l-31 162h-362v-547h264q253 0 338 16l57 248h66l-19 -354h-1071v53zM850 1452l-293 268v37h193l155 -272v-33h-55zM498 1452l-291 268v37h192l156 -272v-33h-57z
" />
    <glyph glyph-name="uni0205" unicode="&#x205;" horiz-adv-x="907" 
d="M80 477h2q0 232 96.5 360t300.5 128q361 0 361 -410v-82h-578v-18q0 -184 65.5 -277.5t225.5 -93.5q48 0 125.5 9.5t122.5 19.5v-56q-49 -32 -134 -54.5t-165 -22.5q-228 0 -325 121.5t-97 375.5zM479 885v-2q-215 0 -215 -332h402q0 182 -45 256q-47 78 -142 78z
M737 1116l-293 268v37h193l156 -272v-33h-56zM385 1116l-291 268v37h193l155 -272v-33h-57z" />
    <glyph glyph-name="uni0206" unicode="&#x206;" horiz-adv-x="1249" 
d="M59 53l174 27v1182l-172 26v53h1006v-321h-66l-32 217q-106 14 -326 14h-219v-524h362l31 160h64v-412h-64l-31 162h-362v-547h264q253 0 338 16l57 248h66l-19 -354h-1071v53zM319 1452q2 130 78 205.5t207 75.5q133 0 208.5 -75t80.5 -206h-74q-17 67 -73 103t-140 36
t-140 -36t-73 -103h-74z" />
    <glyph glyph-name="uni0207" unicode="&#x207;" horiz-adv-x="907" 
d="M80 477h2q0 232 96.5 360t300.5 128q361 0 361 -410v-82h-578v-18q0 -184 65.5 -277.5t225.5 -93.5q48 0 125.5 9.5t122.5 19.5v-56q-49 -32 -134 -54.5t-165 -22.5q-228 0 -325 121.5t-97 375.5zM479 885v-2q-215 0 -215 -332h402q0 182 -45 256q-47 78 -142 78z
M195 1116q2 130 77.5 205.5t206.5 75.5q133 0 208.5 -75t80.5 -206h-74q-17 67 -73 103t-140 36t-140 -36t-73 -103h-73z" />
    <glyph glyph-name="uni0208" unicode="&#x208;" horiz-adv-x="681" 
d="M438 80l172 -27v-53h-536v53l172 27v1182l-172 26v53h536v-53l-172 -26v-1182zM592 1452l-293 268v37h193l155 -272v-33h-55zM240 1452l-291 268v37h192l156 -272v-33h-57z" />
    <glyph glyph-name="uni0209" unicode="&#x209;" horiz-adv-x="567" 
d="M369 70l161 -25v-45h-487v45l160 25v800l-133 25v45h299v-870zM516 1118l-293 268v37h193l155 -272v-33h-55zM164 1118l-291 268v37h193l155 -272v-33h-57z" />
    <glyph glyph-name="uni020A" unicode="&#x20a;" horiz-adv-x="681" 
d="M438 80l172 -27v-53h-536v53l172 27v1182l-172 26v53h536v-53l-172 -26v-1182zM55 1452q2 130 78 205.5t207 75.5q133 0 208.5 -75t80.5 -206h-74q-17 67 -73 103t-140 36t-140 -36t-73 -103h-74z" />
    <glyph glyph-name="uni020B" unicode="&#x20b;" horiz-adv-x="567" 
d="M369 70l161 -25v-45h-487v45l160 25v800l-133 25v45h299v-870zM-16 1118q2 130 77.5 205.5t206.5 75.5q133 0 208.5 -75t80.5 -206h-74q-17 67 -73 103t-140 36t-140 -36t-73 -103h-73z" />
    <glyph glyph-name="uni020C" unicode="&#x20c;" horiz-adv-x="1478" 
d="M739 1276v-2q-128 0 -216 -40t-138 -121t-71 -187.5t-21 -255.5q0 -323 108 -467t338 -144q102 0 179 28t128 78.5t82.5 127.5t44.5 169t13 210q0 321 -109 463q-108 141 -338 141zM739 -23q-324 0 -489.5 178.5t-165.5 514.5q0 684 655 684q326 0 491 -175t165 -509
q0 -336 -166 -514.5t-490 -178.5zM952 1450l-293 268v37h193l156 -272v-33h-56zM600 1450l-291 268v37h193l155 -272v-33h-57z" />
    <glyph glyph-name="uni020D" unicode="&#x20d;" horiz-adv-x="1024" 
d="M514 965q219 0 325.5 -127t106.5 -363q0 -495 -440 -495q-217 0 -322.5 129.5t-105.5 365.5t107.5 363t328.5 127zM766 475q0 76 -6.5 134.5t-24 112t-46.5 88t-75 55t-108 20.5t-107 -20t-72 -54t-42.5 -88t-21 -111.5t-5.5 -136.5t5.5 -137.5t21 -113.5t42.5 -89.5
t72 -55t107 -20.5t108 20.5t75 56t46.5 90t24 114t6.5 135.5zM735 1118l-293 268v37h193l156 -272v-33h-56zM383 1118l-291 268v37h193l155 -272v-33h-57z" />
    <glyph glyph-name="uni020E" unicode="&#x20e;" horiz-adv-x="1478" 
d="M739 1276v-2q-128 0 -216 -40t-138 -121t-71 -187.5t-21 -255.5q0 -323 108 -467t338 -144q102 0 179 28t128 78.5t82.5 127.5t44.5 169t13 210q0 321 -109 463q-108 141 -338 141zM739 -23q-324 0 -489.5 178.5t-165.5 514.5q0 684 655 684q326 0 491 -175t165 -509
q0 -336 -166 -514.5t-490 -178.5zM451 1450q2 130 77.5 205.5t206.5 75.5q133 0 208.5 -75t80.5 -206h-74q-17 67 -73 103t-140 36t-140 -36t-73 -103h-73z" />
    <glyph glyph-name="uni020F" unicode="&#x20f;" horiz-adv-x="1024" 
d="M514 965q219 0 325.5 -127t106.5 -363q0 -495 -440 -495q-217 0 -322.5 129.5t-105.5 365.5t107.5 363t328.5 127zM766 475q0 76 -6.5 134.5t-24 112t-46.5 88t-75 55t-108 20.5t-107 -20t-72 -54t-42.5 -88t-21 -111.5t-5.5 -136.5t5.5 -137.5t21 -113.5t42.5 -89.5
t72 -55t107 -20.5t108 20.5t75 56t46.5 90t24 114t6.5 135.5zM223 1118q2 130 78 205.5t207 75.5q133 0 208.5 -75t80.5 -206h-74q-17 67 -73 103t-140 36t-140 -36t-73 -103h-74z" />
    <glyph glyph-name="uni0210" unicode="&#x210;" horiz-adv-x="1363" 
d="M1130 983q0 -139 -76.5 -235.5t-199.5 -131.5l365 -536l145 -27v-53h-322l-376 588h-242v-508l203 -27v-53h-555v53l159 27v1182l-172 26v53h580q118 0 204 -17t152.5 -57t100.5 -111t34 -173zM600 678q175 0 253.5 64.5t78.5 226.5q0 161 -78 221.5t-258 60.5h-172v-573
h176zM819 1452l-293 268v37h193l155 -272v-33h-55zM467 1452l-291 268v37h193l155 -272v-33h-57z" />
    <glyph glyph-name="uni0211" unicode="&#x211;" horiz-adv-x="681" 
d="M324 823q52 43 156 92.5t169 49.5h15v-254h-43l-58 110q-55 0 -124.5 -15t-112.5 -34v-702l161 -25v-45h-446v45l119 25v800l-119 25v45h274zM535 1118l-293 268v37h192l156 -272v-33h-55zM182 1118l-291 268v37h193l156 -272v-33h-58z" />
    <glyph glyph-name="uni0212" unicode="&#x212;" horiz-adv-x="1363" 
d="M1130 983q0 -139 -76.5 -235.5t-199.5 -131.5l365 -536l145 -27v-53h-322l-376 588h-242v-508l203 -27v-53h-555v53l159 27v1182l-172 26v53h580q118 0 204 -17t152.5 -57t100.5 -111t34 -173zM600 678q175 0 253.5 64.5t78.5 226.5q0 161 -78 221.5t-258 60.5h-172v-573
h176zM328 1452q2 130 77.5 205.5t206.5 75.5q133 0 208.5 -75t80.5 -206h-74q-17 67 -73 103t-140 36t-140 -36t-73 -103h-73z" />
    <glyph glyph-name="uni0213" unicode="&#x213;" horiz-adv-x="681" 
d="M324 823q52 43 156 92.5t169 49.5h15v-254h-43l-58 110q-55 0 -124.5 -15t-112.5 -34v-702l161 -25v-45h-446v45l119 25v800l-119 25v45h274zM86 1118q2 130 78 205.5t207 75.5q132 0 207.5 -74.5t80.5 -206.5h-73q-17 67 -73 103t-140 36t-140 -36t-73 -103h-74z" />
    <glyph glyph-name="uni0214" unicode="&#x214;" horiz-adv-x="1478" 
d="M762 92q190 0 293.5 90.5t103.5 270.5v809l-180 26v53h457v-53l-172 -26v-801q0 -242 -132 -361.5t-384 -119.5q-254 0 -393.5 115.5t-139.5 346.5v820l-172 26v53h537v-53l-172 -26v-805q0 -365 354 -365zM958 1452l-292 268v37h192l156 -272v-33h-56zM606 1452
l-291 268v37h193l156 -272v-33h-58z" />
    <glyph glyph-name="uni0215" unicode="&#x215;" horiz-adv-x="1024" 
d="M707 76h-5q-65 -36 -156 -66t-161 -30q-240 0 -240 276v614l-120 25v45h286v-672q0 -172 160 -172q122 0 234 31v743l-142 25v45h307v-870l119 -25v-45h-274zM711 1118l-293 268v37h192l156 -272v-33h-55zM358 1118l-290 268v37h192l156 -272v-33h-58z" />
    <glyph glyph-name="uni0216" unicode="&#x216;" horiz-adv-x="1478" 
d="M762 92q190 0 293.5 90.5t103.5 270.5v809l-180 26v53h457v-53l-172 -26v-801q0 -242 -132 -361.5t-384 -119.5q-254 0 -393.5 115.5t-139.5 346.5v820l-172 26v53h537v-53l-172 -26v-805q0 -365 354 -365zM487 1452q2 130 78 205.5t207 75.5q133 0 208.5 -75t80.5 -206
h-74q-17 67 -73 103t-140 36t-140 -36t-73 -103h-74z" />
    <glyph glyph-name="uni0217" unicode="&#x217;" horiz-adv-x="1024" 
d="M707 76h-5q-65 -36 -156 -66t-161 -30q-240 0 -240 276v614l-120 25v45h286v-672q0 -172 160 -172q122 0 234 31v743l-142 25v45h307v-870l119 -25v-45h-274zM229 1118q2 130 78 205.5t207 75.5q133 0 208.5 -75t80.5 -206h-74q-17 67 -73 103t-140 36t-140 -36t-73 -103
h-74z" />
    <glyph glyph-name="uni0218" unicode="&#x218;" horiz-adv-x="1138" 
d="M551 -20v2q-108 0 -219 19.5t-193 51.5v309h66l35 -180q37 -46 129 -82.5t176 -36.5q136 0 216.5 70.5t80.5 198.5q0 30 -6 57t-15.5 48t-26.5 40.5t-31.5 33.5t-39.5 28.5t-43 23.5t-47.5 20.5t-47 17.5t-49.5 16.5t-47 15.5q-63 21 -107 40t-94 51.5t-80 70t-50.5 94.5
t-20.5 127q0 87 35 153.5t97.5 107t143 61t177.5 20.5q164 0 352 -43v-279h-65l-35 164q-103 74 -252 74q-125 0 -205 -51.5t-80 -153.5q0 -65 29.5 -107.5t81.5 -74.5q24 -15 56.5 -30t56.5 -23.5t66.5 -23.5t61.5 -22q64 -23 108.5 -43.5t95 -54.5t80.5 -73t50.5 -98.5
t20.5 -131.5q0 -200 -122.5 -303.5t-338.5 -103.5zM524 -68h-2q52 0 84.5 -39.5t32.5 -95.5q0 -89 -49 -141q-50 -53 -174 -90v63q121 38 121 88q0 7 -1.5 13t-6 11t-7 8.5t-10 8l-10 6t-11.5 6.5t-10 5q-26 13 -40.5 29.5t-14.5 45.5q0 39 27.5 60.5t70.5 21.5z" />
    <glyph glyph-name="uni0219" unicode="&#x219;" horiz-adv-x="796" 
d="M399 885h-4q-78 0 -122 -38.5t-44 -109.5q0 -64 40.5 -100t113.5 -62q145 -49 192 -73q144 -77 144 -240q0 -285 -350 -285q-65 0 -154 14.5t-133 33.5v231h45l49 -131q77 -68 197 -68q194 0 194 166q0 121 -153 174l-88 29q-94 31 -141 61.5t-76 90.5q-25 52 -25 120
q0 127 87 197t226 70q97 0 258 -31v-205h-47l-43 109q-53 47 -166 47zM389 -70h-2q52 0 84.5 -39.5t32.5 -95.5q0 -89 -49 -141q-50 -53 -174 -90v63q120 37 120 88q0 6 -1.5 11.5t-3.5 9.5t-6.5 8.5l-7 7t-9 6.5t-9 5.5t-10 5t-8.5 4.5q-26 13 -40.5 29.5t-14.5 45.5
q0 39 27.5 60.5t70.5 21.5z" />
    <glyph glyph-name="uni021A" unicode="&#x21a;" horiz-adv-x="1249" 
d="M315 0v53l213 27v1175h-51q-259 0 -346 -20l-27 -209h-67v315h1180v-315h-68l-27 209q-90 18 -352 18h-49v-1173l213 -27v-53h-619zM610 -70h-2q52 0 84.5 -39.5t32.5 -95.5q0 -89 -49 -141q-50 -53 -174 -90v63q121 38 121 88q0 7 -1.5 13t-6 11t-7 8.5t-10 8l-10 6
t-11.5 6.5t-10 5q-26 13 -40.5 29.5t-14.5 45.5q0 39 27.5 60.5t70.5 21.5z" />
    <glyph glyph-name="uni021B" unicode="&#x21b;" horiz-adv-x="567" 
d="M557 35q-31 -23 -98.5 -39t-124.5 -16q-96 0 -143.5 57t-47.5 160v659h-123v45l125 39l101 213h63v-213h215v-84h-215v-641q0 -60 27 -95.5t80 -35.5t141 16v-65zM299 -70h-2q52 0 84.5 -39.5t32.5 -95.5q0 -89 -49 -141q-50 -53 -175 -90v63q121 38 121 88
q0 6 -1.5 11.5t-3.5 9.5t-6.5 8.5l-7 7t-9 6.5t-9 5.5t-10 5t-8.5 4.5q-26 13 -40.5 29.5t-14.5 45.5q0 39 27.5 60.5t70.5 21.5z" />
    <glyph glyph-name="uni021C" unicode="&#x21c;" horiz-adv-x="1150" 
d="M86 1313l-4 -8q201 43 405 43q295 0 420 -88t125 -289q0 -268 -301 -412q340 -70 340 -403q0 -182 -104 -301q-107 -122 -326 -195q-211 -70 -569 -106v81q278 37 454 105q177 68 258 168q84 104 84 252q0 158 -72.5 248t-213.5 102q-152 -42 -363 -64v82q314 44 461 150
q151 109 151 295q0 162 -82 230.5t-257 68.5q-75 0 -164 -15.5t-142 -37.5l-34 -164h-66v258z" />
    <glyph glyph-name="uni021D" unicode="&#x21d;" horiz-adv-x="808" 
d="M348 965l-2 -2q185 0 270.5 -66.5t85.5 -230.5q0 -221 -225 -332q261 -68 264 -307q0 -211 -159 -322q-156 -109 -506 -147v63q252 43 368 139q115 95 115 269q0 212 -186 264q-79 -24 -185 -39v63q163 33 248.5 113t85.5 236q0 112 -41.5 165.5t-140.5 53.5
q-74 0 -158 -47l-43 -166h-53v262q143 31 262 31z" />
    <glyph glyph-name="Hcaron" unicode="&#x21e;" horiz-adv-x="1478" 
d="M59 0v53l172 27v1182l-172 26v53h537v-53l-172 -26v-527h631v527l-172 26v53h536v-53l-172 -26v-1182l172 -27v-53h-536v53l172 27v565h-631v-565l172 -27v-53h-537zM469 1823l268 -185l269 185h55v-33l-217 -274h-213l-217 274v33h55z" />
    <glyph glyph-name="hcaron" unicode="&#x21f;" horiz-adv-x="1024" 
d="M637 965h2q246 0 246 -277v-618l114 -25v-45h-405v45l125 25v606q0 172 -166 172q-85 0 -227 -29v-749l127 -25v-45h-412v45l119 25v1282l-140 24v45h306v-407q0 -96 -7 -150q66 38 156.5 69.5t161.5 31.5zM256 1833l268 -184l269 184h55v-33l-217 -274h-213l-217 274v33
h55z" />
    <glyph glyph-name="uni0220" unicode="&#x220;" horiz-adv-x="1329" 
d="M836 1352h-2q157 0 234 -103.5t77 -281.5v-1323l172 -27v-53h-537v53l172 27v1327q0 260 -221 260q-137 0 -309 -105v-1046l172 -27v-53h-537v53l172 27v1182l-172 26v53h365v-127q142 79 235 107q102 31 179 31z" />
    <glyph glyph-name="uni0221" unicode="&#x221;" horiz-adv-x="1024" 
d="M1192 -266h2q0 -82 -59.5 -129t-151.5 -47q-182 0 -240 149q-48 -56 -75 -143h-72q26 153 123 254l-2 18v230q-115 -86 -258 -86q-385 0 -385 481q0 240 106 372t324 132q97 0 219 -23q-6 35 -6 166v244l-158 24v45h324v-1507q48 10 90 10q94 0 156.5 -52t62.5 -138z
M256 461q0 -86 12.5 -152t41.5 -118t81 -79.5t125 -27.5q118 0 203 39v743q-100 17 -203 17q-260 0 -260 -422zM1014 -367q41 0 65.5 21t24.5 59q0 45 -35 67.5t-92 22.5q-51 0 -92 -12q3 -158 129 -158z" />
    <glyph glyph-name="uni0222" unicode="&#x222;" horiz-adv-x="1234" 
d="M895 1032l-2 2q0 118 -54 179.5t-165 82.5v90q102 -6 176 -25t132 -57t87 -103t29 -157q0 -135 -85 -220t-220 -113q163 -16 265.5 -100.5t102.5 -233.5q0 -397 -545 -397q-546 0 -546 397q0 147 103 231t265 103q-132 25 -218.5 103.5t-86.5 203.5q0 140 105 207
q108 69 321 84l2 -90q-104 -16 -161.5 -65.5t-57.5 -145.5q0 -267 276 -267q277 0 277 291zM276 375q0 -158 85.5 -230.5t254.5 -72.5q341 0 338 303q0 278 -338 278q-340 0 -340 -278z" />
    <glyph glyph-name="uni0223" unicode="&#x223;" horiz-adv-x="1024" 
d="M705 1423q91 -39 150.5 -111.5t59.5 -172.5q0 -215 -208 -291q239 -88 239 -412q0 -456 -440 -456q-214 0 -321 117.5t-107 338.5q0 320 237 412q-206 74 -206 291q0 101 59.5 174t150.5 110l41 -41q-74 -77 -71 -231q0 -131 50.5 -196.5t166.5 -65.5q229 0 229 262
q0 154 -71 231zM506 59q75 0 127 26.5t80.5 78.5t40.5 117.5t12 154.5q0 183 -57.5 278t-202.5 95q-60 0 -104 -17.5t-71.5 -47.5t-44 -78.5t-22.5 -102.5t-6 -127t6 -127.5t22.5 -103.5t44 -80t71.5 -48.5t104 -17.5z" />
    <glyph glyph-name="uni0224" unicode="&#x224;" horiz-adv-x="1249" 
d="M774 84v-2q354 0 354 -215q0 -76 -69 -148q-67 -70 -215 -161l-39 57q160 112 160 213q0 60 -39.5 100t-97 56t-130.5 16h-600v94l752 1161h-250q-253 0 -340 -20l-31 -211h-69v317h913v-86l-758 -1171h459z" />
    <glyph glyph-name="uni0225" unicode="&#x225;" horiz-adv-x="907" 
d="M477 80l-2 -2q336 0 336 -207q0 -72 -61 -139q-62 -68 -199 -150l-37 56q78 54 111 98q32 43 32 98q0 46 -23 79.5t-64 51.5t-89 26.5t-106 8.5h-320v45l516 815h-221q-53 0 -106 -9t-74 -26l-31 -135h-47v250h694v-49l-516 -811h207z" />
    <glyph glyph-name="uni0226" unicode="&#x226;" horiz-adv-x="1478" 
d="M461 53v-53h-441v53l152 27l457 1272h190l475 -1272l170 -27v-53h-567v53l180 27l-133 387h-528l-135 -387zM676 1208l-230 -651h467zM727 1690q44 0 77.5 -32.5t33.5 -76.5q0 -43 -33.5 -75.5t-77.5 -32.5q-43 0 -74.5 32t-31.5 76t31.5 76.5t74.5 32.5z" />
    <glyph glyph-name="uni0227" unicode="&#x227;" horiz-adv-x="907" 
d="M598 696v-2q0 93 -33.5 141t-111.5 48q-102 0 -185 -47l-35 -117h-55v205q161 34 285 34q150 0 224.5 -60t74.5 -196v-634l117 -25v-45h-258l-19 94q-115 -115 -289 -115q-241 0 -241 281q0 82 26 138.5t79 88t119.5 45t160.5 15.5l141 4v147zM381 88v-2q112 0 217 55
v334l-131 -4q-128 -3 -178.5 -46.5t-50.5 -160.5q0 -176 143 -176zM453 1352q44 0 77 -32.5t33 -76.5q0 -43 -33 -75.5t-77 -32.5q-43 0 -75 32t-32 76t32 76.5t75 32.5z" />
    <glyph glyph-name="uni0228" unicode="&#x228;" horiz-adv-x="1249" 
d="M674 -252h4q0 55 -43.5 83.5t-110.5 33.5l37 135h-498v53l173 27v1182l-173 26v53h1006v-321h-65l-33 217q-106 14 -326 14h-219v-524h362l31 160h64v-412h-64l-31 162h-362v-547h264q253 0 338 16l57 248h66l-18 -354h-488l-12 -63q84 -8 138 -51.5t54 -118.5
q0 -94 -70.5 -148.5t-174.5 -54.5q-74 0 -142 22v74q67 -16 121 -16q55 0 85 27t30 77z" />
    <glyph glyph-name="uni0229" unicode="&#x229;" horiz-adv-x="907" 
d="M80 477l4 2q0 232 96.5 360t300.5 128q361 0 361 -410v-82h-578v-18q0 -184 65.5 -277.5t225.5 -93.5q48 0 125.5 9.5t122.5 19.5v-56q-49 -32 -134 -54.5t-165 -22.5l-8 -43q84 -8 138 -51.5t54 -118.5q0 -95 -70 -149t-176 -54q-73 0 -141 22v74q67 -16 121 -16
q55 0 85 27t30 77q0 55 -43 83.5t-109 33.5l31 121q-180 21 -258 142.5t-78 346.5zM481 887v-2q-215 0 -215 -332h402q0 182 -45 256q-47 78 -142 78z" />
    <glyph glyph-name="uni022A" unicode="&#x22a;" horiz-adv-x="1478" 
d="M739 1276v-2q-128 0 -216 -40t-138 -121t-71 -187.5t-21 -255.5q0 -323 108 -467t338 -144q102 0 179 28t128 78.5t82.5 127.5t44.5 169t13 210q0 321 -109 463q-108 141 -338 141zM739 -23q-324 0 -489.5 178.5t-165.5 514.5q0 684 655 684q326 0 491 -175t165 -509
q0 -336 -166 -514.5t-490 -178.5zM426 1714v109h627v-109h-627zM899 1614q37 0 62.5 -26.5t25.5 -63.5t-25.5 -63.5t-62.5 -26.5t-62.5 26.5t-25.5 63.5t25.5 63.5t62.5 26.5zM582 1614q37 0 62.5 -26.5t25.5 -63.5t-25.5 -63.5t-62.5 -26.5t-63.5 26.5t-26.5 63.5
t26.5 63.5t63.5 26.5z" />
    <glyph glyph-name="uni022B" unicode="&#x22b;" horiz-adv-x="1024" 
d="M514 965q219 0 325.5 -127t106.5 -363q0 -495 -440 -495q-217 0 -322.5 129.5t-105.5 365.5t107.5 363t328.5 127zM766 475q0 76 -6.5 134.5t-24 112t-46.5 88t-75 55t-108 20.5t-107 -20t-72 -54t-42.5 -88t-21 -111.5t-5.5 -136.5t5.5 -137.5t21 -113.5t42.5 -89.5
t72 -55t107 -20.5t108 20.5t75 56t46.5 90t24 114t6.5 135.5zM690 1264q42 0 70 -29t28 -72q0 -41 -28.5 -70.5t-69.5 -29.5t-70.5 30t-29.5 70q0 43 28.5 72t71.5 29zM334 1264q42 0 70 -29t28 -72t-27.5 -71.5t-70.5 -28.5q-40 0 -70.5 30t-30.5 70q0 41 30.5 71t70.5 30z
M197 1360v108h628v-108h-628z" />
    <glyph glyph-name="uni022C" unicode="&#x22c;" horiz-adv-x="1478" 
d="M739 1276v-2q-128 0 -216 -40t-138 -121t-71 -187.5t-21 -255.5q0 -323 108 -467t338 -144q102 0 179 28t128 78.5t82.5 127.5t44.5 169t13 210q0 321 -109 463q-108 141 -338 141zM739 -23q-324 0 -489.5 178.5t-165.5 514.5q0 684 655 684q326 0 491 -175t165 -509
q0 -336 -166 -514.5t-490 -178.5zM426 1714v109h627v-109h-627zM1063 1597v-2q-18 -176 -195 -176q-34 0 -69 9.5t-56.5 20t-55.5 29.5t-50 27q-39 17 -68 17q-48 0 -68 -20t-30 -66h-51q15 176 190 176q34 0 69.5 -9.5t57.5 -20t57 -30t50 -26.5q35 -15 67 -15
q48 0 69 19.5t30 66.5h53z" />
    <glyph glyph-name="uni022D" unicode="&#x22d;" horiz-adv-x="1024" 
d="M514 965q219 0 325.5 -127t106.5 -363q0 -495 -440 -495q-217 0 -322.5 129.5t-105.5 365.5t107.5 363t328.5 127zM766 475q0 76 -6.5 134.5t-24 112t-46.5 88t-75 55t-108 20.5t-107 -20t-72 -54t-42.5 -88t-21 -111.5t-5.5 -136.5t5.5 -137.5t21 -113.5t42.5 -89.5
t72 -55t107 -20.5t108 20.5t75 56t46.5 90t24 114t6.5 135.5zM684 1176v-2q50 0 70 28t28 90h52q-15 -241 -197 -241q-73 0 -164 69q-57 41 -70 49q-38 23 -67 23q-28 0 -46 -8t-28.5 -26.5t-15.5 -35.5t-10 -49h-52q15 242 197 242q32 0 66 -12.5t51.5 -24t48.5 -33.5
q63 -45 69 -49q33 -20 68 -20zM199 1389v108h628v-108h-628z" />
    <glyph glyph-name="uni022E" unicode="&#x22e;" horiz-adv-x="1478" 
d="M739 1276v-2q-128 0 -216 -40t-138 -121t-71 -187.5t-21 -255.5q0 -323 108 -467t338 -144q102 0 179 28t128 78.5t82.5 127.5t44.5 169t13 210q0 321 -109 463q-108 141 -338 141zM739 -23q-324 0 -489.5 178.5t-165.5 514.5q0 684 655 684q326 0 491 -175t165 -509
q0 -336 -166 -514.5t-490 -178.5zM737 1688q44 0 77.5 -32.5t33.5 -76.5q0 -43 -33.5 -76t-77.5 -33q-43 0 -74.5 32.5t-31.5 76.5t31.5 76.5t74.5 32.5z" />
    <glyph glyph-name="uni022F" unicode="&#x22f;" horiz-adv-x="1024" 
d="M514 965q219 0 325.5 -127t106.5 -363q0 -495 -440 -495q-217 0 -322.5 129.5t-105.5 365.5t107.5 363t328.5 127zM766 475q0 76 -6.5 134.5t-24 112t-46.5 88t-75 55t-108 20.5t-107 -20t-72 -54t-42.5 -88t-21 -111.5t-5.5 -136.5t5.5 -137.5t21 -113.5t42.5 -89.5
t72 -55t107 -20.5t108 20.5t75 56t46.5 90t24 114t6.5 135.5zM512 1327q45 0 78 -32t33 -76q0 -43 -33.5 -76t-77.5 -33q-43 0 -74.5 32.5t-31.5 76.5t31.5 76t74.5 32z" />
    <glyph glyph-name="uni0230" unicode="&#x230;" horiz-adv-x="1478" 
d="M739 1276v-2q-128 0 -216 -40t-138 -121t-71 -187.5t-21 -255.5q0 -323 108 -467t338 -144q102 0 179 28t128 78.5t82.5 127.5t44.5 169t13 210q0 321 -109 463q-108 141 -338 141zM739 -23q-324 0 -489.5 178.5t-165.5 514.5q0 684 655 684q326 0 491 -175t165 -509
q0 -336 -166 -514.5t-490 -178.5zM426 1714v109h627v-109h-627zM739 1645q44 0 76.5 -32.5t32.5 -76.5q0 -43 -32.5 -76t-76.5 -33q-43 0 -75.5 32.5t-32.5 76.5t32.5 76.5t75.5 32.5z" />
    <glyph glyph-name="uni0231" unicode="&#x231;" horiz-adv-x="1024" 
d="M514 965q219 0 325.5 -127t106.5 -363q0 -495 -440 -495q-217 0 -322.5 129.5t-105.5 365.5t107.5 363t328.5 127zM766 475q0 76 -6.5 134.5t-24 112t-46.5 88t-75 55t-108 20.5t-107 -20t-72 -54t-42.5 -88t-21 -111.5t-5.5 -136.5t5.5 -137.5t21 -113.5t42.5 -89.5
t72 -55t107 -20.5t108 20.5t75 56t46.5 90t24 114t6.5 135.5zM512 1280q44 0 77.5 -32.5t33.5 -76.5q0 -43 -33.5 -75.5t-77.5 -32.5q-43 0 -74.5 32t-31.5 76t31.5 76.5t74.5 32.5zM197 1389v108h628v-108h-628z" />
    <glyph glyph-name="uni0232" unicode="&#x232;" horiz-adv-x="1478" 
d="M838 528v-448l213 -27v-53h-619v53l213 27v442l-471 740l-151 26v53h567v-53l-180 -26l385 -619l366 619l-170 26v53h436v-53l-147 -26zM444 1475v108h629v-108h-629z" />
    <glyph glyph-name="uni0233" unicode="&#x233;" horiz-adv-x="1024" 
d="M199 -442l-2 2q-77 0 -154 18v203h47l33 -96q33 -23 86 -23q59 0 100 32t76 87q35 54 92 209l-358 880l-96 25v45h436v-45l-148 -27l254 -657l246 659l-147 25v45h350v-45l-99 -21l-366 -933q-67 -172 -113 -238q-46 -69 -100.5 -107t-136.5 -38zM225 1112v109h629v-109
h-629z" />
    <glyph glyph-name="uni0234" unicode="&#x234;" horiz-adv-x="567" 
d="M676 -266h-2q0 -82 -59 -129t-150 -47q-182 0 -240 149q-48 -56 -75 -143h-72q26 153 123 254l-2 18v1516l-160 24v45h326v-1507q45 10 92 10q94 0 156.5 -52t62.5 -138zM494 -367q41 0 65.5 21t24.5 59q0 45 -35 67.5t-92 22.5q-51 0 -92 -12q3 -158 129 -158z" />
    <glyph glyph-name="uni0235" unicode="&#x235;" horiz-adv-x="1024" 
d="M713 670q0 178 -166 178q-79 0 -221 -29v-749l127 -25v-45h-406v45l113 25v800l-113 25v45h268l9 -76q183 101 309 101q246 0 246 -277v-774q48 10 90 10q94 0 156.5 -52t62.5 -138q0 -82 -59 -129t-150 -47q-182 0 -240 149q-48 -56 -75 -143h-72q26 153 123 254l-2 18
v834zM1008 -367q41 0 65.5 21t24.5 59q0 45 -35 67.5t-92 22.5q-51 0 -92 -12q3 -158 129 -158z" />
    <glyph glyph-name="uni0236" unicode="&#x236;" horiz-adv-x="647" 
d="M618 156q0 -82 -59 -129t-151 -47q-182 0 -240 149q-47 -53 -74 -141h-74q27 151 123 252v616h-123v45l125 39l101 213h63v-213h215v-84h-215v-520q46 13 90 10q96 0 157.5 -51.5t61.5 -138.5zM436 55q40 0 65 22t25 60q0 88 -125 88q-40 0 -92 -10q6 -160 127 -160z" />
    <glyph glyph-name="j.dotless" unicode="&#x237;" horiz-adv-x="567" 
d="M383 -39h-4q0 -184 -71.5 -290.5t-225.5 -106.5q-62 0 -145 18v199h47l26 -109q36 -28 86 -28q61 0 90 63q31 67 31 203v960l-141 25v45h307v-979z" />
    <glyph glyph-name="uni0238" unicode="&#x238;" horiz-adv-x="1583" 
d="M1128 965v-2q202 0 300 -122t98 -347q0 -244 -109 -380.5t-330 -136.5q-87 0 -188.5 23t-181.5 55q-104 -78 -258 -78q-385 0 -385 482q0 240 106 372t324 132q97 0 219 -23q-6 35 -6 166v244l-158 24v45h324v-336q0 -52 -6 -196q104 78 251 78zM254 459q0 -86 12.5 -152
t41.5 -118t81 -79.5t125 -27.5q130 0 203 31v751q-100 17 -203 17q-260 0 -260 -422zM1083 63h-2q62 0 109 22.5t75.5 60.5t46.5 95t24.5 117.5t6.5 135.5q0 175 -59.5 269.5t-202.5 94.5q-50 0 -108.5 -10t-89.5 -23v-737q131 -25 200 -25z" />
    <glyph glyph-name="uni0239" unicode="&#x239;" horiz-adv-x="1581" 
d="M1133 965h2q128 0 214 -63.5t124 -169.5t38 -251q0 -233 -104.5 -367t-312.5 -134q-108 0 -215 22q6 -70 6 -111v-253l164 -25v-47h-459v47l129 25v260q0 87 10 165q-109 -83 -270 -83q-385 0 -385 487q0 235 105.5 366.5t320.5 131.5q101 0 223 -23l90 43h70v-94
q42 33 110 53.5t140 20.5zM516 84q51 0 111 9.5t92 23.5v749q-100 17 -203 17q-260 0 -260 -416q0 -86 12.5 -152.5t41.5 -120t81 -82t125 -28.5zM1331 481h-2q0 86 -12 151.5t-39.5 118.5t-78 81t-122.5 28q-121 0 -194 -33v-751q100 -17 196 -17q252 0 252 422z" />
    <glyph glyph-name="uni023A" unicode="&#x23a;" horiz-adv-x="1478" 
d="M1464 0h-567v53l180 27l-133 387h-338l-258 -397l113 -17v-53h-158l-67 -104h-99l68 104h-185v53l152 27l457 1272h190l96 -258l195 301h100l-260 -398l344 -917l170 -27v-53zM676 1208l-230 -651h119l223 342zM913 557l-90 244l-157 -244h247zM416 467l-94 -274l-9 -19
l4 -2q31 49 95.5 147.5t95.5 147.5h-92z" />
    <glyph glyph-name="uni023B" unicode="&#x23b;" horiz-adv-x="1363" 
d="M84 655v-2q0 346 175 523.5t519 177.5q87 0 217 -13l70 140h96l-76 -152l142 -26l6 -293h-66l-30 174q-48 30 -99 49l-540 -1098q116 -78 278 -78q109 0 211 27.5t164 73.5l37 200h65l-6 -315q-212 -63 -473 -63q-184 0 -323 59l-80 -164h-92l98 199q-293 171 -293 581z
M786 1274q-109 0 -192.5 -27.5t-140.5 -78t-93 -128t-51.5 -171.5t-15.5 -214q0 -313 139 -467l522 1067q-93 19 -168 19z" />
    <glyph glyph-name="uni023C" unicode="&#x23c;" horiz-adv-x="1024" 
d="M895 264l-2 -2q-79 -65 -275 -76v-186h-81v186q-410 23 -410 498q0 219 105 346t305 139v172h81v-170q134 -6 254 -30v-262h-55l-43 165q-63 37 -153 46v-799h22q149 0 252 33v-60zM305 682v-2q0 -170 52.5 -263t177.5 -118v788q-230 -27 -230 -405z" />
    <glyph glyph-name="uni023D" unicode="&#x23d;" horiz-adv-x="1249" 
d="M631 1288l-207 -26v-512h381v-84h-381v-580h264q216 0 313 20l62 279h65l-18 -385h-1051v53l172 27v586h-190v84h190v512l-172 26v53h572v-53z" />
    <glyph glyph-name="uni023E" unicode="&#x23e;" horiz-adv-x="1249" 
d="M190 -63h-100l438 671v647h-51q-259 0 -346 -20l-27 -209h-67v315h967l61 95h98l-59 -95h113v-315h-68l-27 209l-82 8l-319 -489v-674l213 -27v-53h-619v53l213 27v377zM770 1253h-49v-348l223 344q-106 4 -174 4z" />
    <glyph glyph-name="uni023F" unicode="&#x23f;" horiz-adv-x="796" 
d="M399 885h-6q-78 0 -122 -38.5t-44 -109.5q0 -64 40.5 -100t113.5 -62q145 -49 192 -73q144 -77 144 -240q0 -285 -350 -285h-7q22 -32 65.5 -126.5t76.5 -131.5q27 -30 67 -30q37 0 66 20t37 49h45v-192q-30 -10 -74 -10q-197 0 -285 202q-68 145 -94 183q-29 42 -78 55
l-104 29v231h45l49 -131q77 -68 197 -68q194 0 194 166q0 121 -153 174l-88 29q-94 31 -141 61.5t-76 90.5q-25 52 -25 120q0 127 87 197t226 70q97 0 258 -31v-205h-47l-43 109q-53 47 -166 47z" />
    <glyph glyph-name="uni0240" unicode="&#x240;" horiz-adv-x="907" 
d="M645 -309q38 0 65.5 20t37.5 49h45v-192q-30 -10 -74 -10q-164 0 -246 131q-31 52 -84 172q-31 67 -69 103t-101 36h-164v45l516 815h-221q-53 0 -106 -9t-74 -26l-31 -135h-47v250h694v-49l-516 -809q103 -3 164 -86q36 -52 90 -180q26 -61 56 -95q27 -30 65 -30z" />
    <glyph glyph-name="uni0241" unicode="&#x241;" horiz-adv-x="1091" 
d="M1012 1004q0 -201 -104 -319t-292 -148v-457l172 -27v-53h-536v53l172 27v516l88 10q168 20 241.5 114.5t73.5 283.5q0 354 -278 354q-156 0 -289 -80l-35 -166h-65v258q179 72 381 72q226 0 348.5 -110.5t122.5 -327.5z" />
    <glyph glyph-name="uni0242" unicode="&#x242;" horiz-adv-x="813" 
d="M760 655l2 -2q0 -133 -71.5 -202t-209.5 -103v-280l162 -25v-45h-487v45l159 25v319l60 10q209 41 209 258q0 118 -61.5 172t-184.5 54q-114 0 -197 -50l-35 -163h-65v254q154 43 295 43q123 0 215.5 -31t150.5 -102t58 -177z" />
    <glyph glyph-name="uni0243" unicode="&#x243;" horiz-adv-x="1363" 
d="M1266 385v-2q0 -84 -25.5 -150t-70.5 -111t-111 -74.5t-144 -42.5t-172 -13l-428 6h-256v53l172 27v237h-178v84h178v861l-172 26v53h613q91 0 161.5 -8t134.5 -29.5t105.5 -56t65.5 -90.5t24 -131q0 -127 -76.5 -206.5t-199.5 -104.5q80 -8 147 -31t120 -62t82.5 -99
t29.5 -136zM1059 381q0 79 -27.5 132.5t-81.5 83t-123 42t-163 12.5h-240v-252h342v-84h-342v-227q138 -6 295 -6q168 0 254 71.5t86 227.5zM643 741q160 0 237.5 63t77.5 210q0 132 -81.5 183.5t-245.5 51.5h-207v-508h219z" />
    <glyph glyph-name="uni0244" unicode="&#x244;" horiz-adv-x="1478" 
d="M748 -20q-254 0 -393.5 115.5t-139.5 346.5v226h-172v84h172v510l-172 26v53h537v-53l-172 -26v-510h751v510l-180 26v53h457v-53l-172 -26v-510h172v-84h-172v-207q0 -242 -132 -361.5t-384 -119.5zM762 92q190 0 293.5 90.5t103.5 270.5v215h-751v-211q0 -365 354 -365
z" />
    <glyph glyph-name="uni0245" unicode="&#x245;" horiz-adv-x="1484" 
d="M281 80l180 -27v-53h-441v53l146 27l463 1272h190l475 -1272l170 -27v-53h-567v53l180 27l-395 1116z" />
    <glyph glyph-name="uni0246" unicode="&#x246;" horiz-adv-x="1249" 
d="M334 0l-60 -125h-90l58 125h-183v53l172 27v1182l-172 26v53h813l66 142h98l-67 -142h96v-321h-66l-32 217l-45 4l-244 -514h108l31 160h64v-412h-64l-31 162h-149l-213 -447v-100h264q253 0 338 16l57 248h66l-19 -354h-796zM424 727h160l243 520l-184 4h-219v-524z
M424 385l117 252h-117v-252z" />
    <glyph glyph-name="uni0247" unicode="&#x247;" horiz-adv-x="907" 
d="M801 57h2q-49 -32 -134 -54.5t-165 -22.5q-87 0 -154 20l-119 -346h-86l129 373q-190 98 -190 450q0 232 96.5 360t300.5 128q58 0 115 -13l119 342h86l-129 -370q170 -89 170 -369v-82h-326l-123 -352q64 -37 160 -37q48 0 125.5 9.5t122.5 19.5v-56zM479 885
q-215 0 -215 -332h191l108 311q-35 21 -84 21zM262 455q0 -189 64 -277l102 295h-166v-18zM666 553q0 170 -39 244l-86 -244h125z" />
    <glyph glyph-name="uni0248" unicode="&#x248;" horiz-adv-x="796" 
d="M754 668h-154v-236q0 -279 -166 -395q-80 -57 -184 -57q-127 0 -207 30v244h66l30 -139q40 -49 131 -49q140 0 140 190v412h-172v84h172v510l-172 26v53h516v-53l-152 -26v-510h152v-84z" />
    <glyph glyph-name="uni0249" unicode="&#x249;" horiz-adv-x="567" 
d="M383 -39h-2q0 -184 -71.5 -290.5t-225.5 -106.5q-64 0 -147 18v199h47l26 -109q36 -28 86 -28q61 0 90 63q31 67 31 203v532h-162v84h162v344l-141 25v45h307v-414h160v-84h-160v-481zM283 1356q43 0 75.5 -32.5t32.5 -76.5q0 -43 -32 -75.5t-76 -32.5t-76.5 32t-32.5 76
t32.5 76.5t76.5 32.5z" />
    <glyph glyph-name="uni024A" unicode="&#x24a;" horiz-adv-x="1437" 
d="M748 57q74 0 160 20t149 48v1100q-117 51 -289 51q-132 0 -225 -42.5t-147 -125t-78.5 -193t-24.5 -258.5q0 -600 455 -600zM84 655l-2 -2q0 342 173 521.5t511 179.5q132 0 289 -37l141 22h51v-1509q0 -191 139 -188q92 0 132 49l28 137h68v-244q-82 -31 -207 -28
q-111 0 -192 62t-119 159q-39 101 -39 237v31q-157 -65 -332 -65q-306 0 -473.5 180t-167.5 495z" />
    <glyph glyph-name="uni024B" unicode="&#x24b;" horiz-adv-x="1024" 
d="M514 84q51 0 111 9.5t92 23.5v749q-100 17 -203 17q-260 0 -260 -416q0 -86 12.5 -152.5t41.5 -120t81 -82t125 -28.5zM74 467h2q0 235 105.5 366.5t320.5 131.5q101 0 223 -23l90 43h70v-1081q0 -138 30 -203q29 -63 91 -63q51 0 84 26l26 111h47v-201q-86 -19 -147 -16
q-143 0 -220 92t-77 248q0 87 10 165q-109 -83 -270 -83q-385 0 -385 487z" />
    <glyph glyph-name="uni024C" unicode="&#x24c;" horiz-adv-x="1363" 
d="M1130 983q0 -139 -76.5 -235.5t-199.5 -131.5l365 -536l145 -27v-53h-322l-376 588h-242v-508l203 -27v-53h-555v53l159 27v508h-165v90h165v584l-172 26v53h580q118 0 204 -17t152.5 -57t100.5 -111t34 -173zM600 678q175 0 253.5 64.5t78.5 226.5q0 161 -78 221.5
t-258 60.5h-172v-573h176z" />
    <glyph glyph-name="uni024D" unicode="&#x24d;" horiz-adv-x="681" 
d="M563 821q-55 0 -124.5 -15t-112.5 -34v-260h172v-84h-172v-358l161 -25v-45h-446v45l119 25v358h-119v84h119v358l-119 25v45h274l9 -117q52 43 156 92.5t169 49.5h15v-254h-43z" />
    <glyph glyph-name="uni024E" unicode="&#x24e;" horiz-adv-x="1478" 
d="M1427 981h-317l-272 -453v-448l213 -27v-53h-619v53l213 27v442l-293 459h-329v84h276l-125 197l-151 26v53h567v-53l-180 -26l122 -197h512l117 197l-170 26v53h436v-53l-147 -26l-119 -197h266v-84zM795 643l198 338h-407z" />
    <glyph glyph-name="uni024F" unicode="&#x24f;" horiz-adv-x="1024" 
d="M791 549l-244 -606q-67 -172 -113 -238q-46 -69 -100.5 -107t-136.5 -38q-77 0 -154 18v203h47l33 -96q33 -23 86 -23q74 0 133 59q58 58 111 197l26 72l-227 559h-227v84h192l-96 237l-96 25v45h436v-45l-148 -27l90 -235h322l88 237l-147 25v45h350v-45l-98 -21
l-95 -241h193v-84h-225zM563 213l125 338h-256z" />
    <glyph glyph-name="uni0250" unicode="&#x250;" horiz-adv-x="907" 
d="M311 246v2q0 -191 146 -191q101 0 184 47l35 117h55v-205q-161 -34 -285 -34q-149 0 -224 60.5t-75 195.5v634l-116 27v43h258l18 -92q114 114 289 111q242 0 242 -279q0 -191 -158 -254q-76 -30 -227 -33l-142 -4v-145zM528 854v2q-63 0 -110.5 -13.5t-106.5 -41.5v-334
l131 4q126 2 178 46.5t52 160.5q0 176 -144 176z" />
    <glyph glyph-name="uni0251" unicode="&#x251;" horiz-adv-x="1069" 
d="M465 965h2q91 0 151 -29t101 -88v92h166v-870l116 -25v-45h-264l-18 109q-120 -126 -295 -129q-347 0 -350 473q0 150 40 262.5t129.5 181t221.5 68.5zM465 78q82 0 140 26t114 78v320q0 77 -13 143.5t-39.5 122t-74 87.5t-111.5 32q-225 0 -225 -434q0 -82 8.5 -143.5
t29.5 -117t64.5 -85t106.5 -29.5z" />
    <glyph glyph-name="uni0252" unicode="&#x252;" horiz-adv-x="1069" 
d="M606 -20h-2q-91 0 -151 28.5t-101 87.5v-92h-166v870l-116 25v45h264l18 -106q121 127 295 127q347 0 350 -473q0 -150 -40 -262.5t-129.5 -181t-221.5 -68.5zM606 866q-82 0 -139.5 -25.5t-114.5 -76.5v-322q0 -77 13 -143.5t39.5 -121.5t74 -86.5t111.5 -31.5
q225 0 225 433q0 65 -4.5 116t-18.5 101t-36.5 83t-60.5 53.5t-89 20.5z" />
    <glyph glyph-name="uni0253" unicode="&#x253;" horiz-adv-x="1024" 
d="M504 66h-2q62 0 109 22.5t75.5 60.5t46.5 94.5t24.5 117t6.5 135.5q0 175 -59.5 269.5t-202.5 94.5q-50 0 -109 -10t-90 -23v-745q88 -16 201 -16zM547 965l-2 -2q202 0 299.5 -122t97.5 -347q0 -244 -108.5 -380.5t-329.5 -136.5q-89 0 -194 20.5t-177 49.5v961
q0 75 11 139t34.5 118.5t59.5 93t89 60t119 21.5q74 0 142 -19v-204h-49l-45 122q-35 21 -80 21q-64 0 -88 -55q-25 -58 -25 -209q0 -114 -6 -209q104 78 252 78z" />
    <glyph glyph-name="uni0254" unicode="&#x254;" horiz-adv-x="907" 
d="M317 860h5q-64 0 -137.5 -9t-116.5 -24v62q44 34 132.5 55t176.5 21q457 0 457 -496q0 -230 -116 -359.5t-335 -129.5q-136 0 -295 30v262h55l43 -166q83 -47 197 -47q268 0 268 410q0 202 -76.5 296.5t-257.5 94.5z" />
    <glyph glyph-name="uni0255" unicode="&#x255;" horiz-adv-x="907" 
d="M870 213l-2 2q0 -62 -27 -108t-74.5 -72.5t-107 -39.5t-131.5 -13q-207 0 -325 112q-42 -86 -60 -176h-73q19 143 75 250q-69 115 -69 305q0 235 114 364.5t336 129.5q131 0 295 -31v-262h-55l-43 166q-83 47 -197 47q-268 0 -268 -414q0 -82 10 -147q135 108 310 108
q125 0 208.5 -57.5t83.5 -163.5zM555 86h2q223 0 223 119q0 110 -209 110q-161 0 -268 -88q83 -141 252 -141z" />
    <glyph glyph-name="uni0256" unicode="&#x256;" horiz-adv-x="1024" 
d="M254 461q0 -86 12.5 -152t41.5 -118t81 -79.5t125 -27.5q118 0 203 39v743q-100 17 -203 17q-260 0 -260 -422zM1014 -436q-155 0 -226 106t-71 291v105q-115 -86 -258 -86q-385 0 -385 481q0 240 106 372t324 132q97 0 219 -23q-6 35 -6 166v244l-158 24v45h324v-1511
q0 -138 30 -203q29 -63 91 -63q47 0 83 28l27 109h47v-199q-83 -18 -147 -18z" />
    <glyph glyph-name="uni0257" unicode="&#x257;" horiz-adv-x="1024" 
d="M254 461q0 -86 12.5 -152t41.5 -118t81 -79.5t125 -27.5q118 0 203 39v743q-100 17 -203 17q-260 0 -260 -422zM717 1010l-4 -2q0 75 11 139t34.5 118.5t59.5 93t89 60t119 21.5q72 0 143 -19v-204h-49l-45 122q-35 21 -80 21q-64 0 -88 -55t-24 -209v-1026l116 -25v-45
h-264l-12 70q-116 -90 -264 -90q-385 0 -385 481q0 240 106 372t324 132q97 0 219 -23z" />
    <glyph glyph-name="uni0258" unicode="&#x258;" horiz-adv-x="907" 
d="M358 84q158 0 224.5 92t66.5 279v18h-577v82q0 410 360 410q204 0 300.5 -128t96.5 -360q0 -253 -97 -375t-324 -122q-80 0 -165 22.5t-134 54.5v56q44 -11 121 -20t128 -9zM647 553v2q0 332 -215 332q-95 0 -141 -76q-45 -74 -45 -258h401z" />
    <glyph glyph-name="uni0259" unicode="&#x259;" horiz-adv-x="907" 
d="M829 469q0 -232 -96.5 -360.5t-300.5 -128.5q-360 0 -360 409v82h577v18q0 184 -65.5 277.5t-225.5 93.5q-52 0 -129.5 -9t-119.5 -20v58q48 32 133.5 54t165.5 22q227 0 324 -121.5t97 -374.5zM432 59l-2 -2q215 0 215 332h-401q0 -177 47 -254q46 -76 141 -76z" />
    <glyph glyph-name="uni025A" unicode="&#x25a;" horiz-adv-x="1282" 
d="M1284 610q-14 -72 -71 -123t-134 -51q-105 0 -160 69.5t-55 186.5l-47 -22q21 -88 21 -201q0 -232 -97 -360.5t-301 -128.5q-180 0 -270 100.5t-90 290.5l559 295q-50 197 -272 194q-53 0 -129.5 -9t-120.5 -20v58q48 32 133.5 54t165.5 22q297 0 379 -217q8 4 20 10.5
t16 9t11.5 6.5t10.5 7t8 7t8.5 8.5t7.5 10t10 14.5l88 -12v-64q0 -50 4.5 -85.5t16.5 -68.5t36.5 -50t61.5 -17q85 0 149 125zM440 59q59 0 102.5 26t68 73t35.5 104.5t11 128.5v98l-4 93l-399 -209q0 -57 4.5 -101.5t17 -85.5t32.5 -68t53.5 -43t78.5 -16z" />
    <glyph glyph-name="uni025B" unicode="&#x25b;" horiz-adv-x="858" 
d="M506 84v-4q86 0 148 11.5t147 39.5v-65q-142 -91 -344 -91q-172 0 -274.5 71.5t-102.5 217.5q0 96 63.5 158t159.5 82v6q-184 61 -184 213q0 63 32 111t88 75.5t122 40.5t143 13q140 0 268 -35v-197h-47l-57 113q-27 16 -78 28.5t-92 12.5q-97 0 -153 -41.5t-56 -126.5
q0 -68 33.5 -114.5t89.5 -61.5q26 3 111 7.5t114 4.5h31v-96h-31q-69 0 -244 12q-66 -19 -103.5 -67.5t-37.5 -122.5q0 -95 71 -145t183 -50z" />
    <glyph glyph-name="uni025C" unicode="&#x25c;" horiz-adv-x="858" 
d="M780 268v2q0 -146 -102.5 -217t-274.5 -71q-204 0 -344 90v65q82 -28 146.5 -39.5t150.5 -11.5q110 0 182 50.5t72 144.5q0 148 -141 190q-175 -12 -246 -12h-30v96h30q28 0 113 -4.5t113 -7.5q55 15 88.5 62t33.5 116q0 85 -56 126.5t-153 41.5q-44 0 -93.5 -12
t-75.5 -29l-58 -113h-47l-2 197q128 38 270 35q77 0 143 -13t122 -40.5t88 -75.5t32 -111q0 -152 -184 -213v-6q98 -20 160.5 -81.5t62.5 -158.5z" />
    <glyph glyph-name="uni025D" unicode="&#x25d;" horiz-adv-x="1202" 
d="M1204 610v2q-14 -72 -71 -123t-134 -51q-105 0 -160 69.5t-55 186.5l-51 -26q-27 -101 -176 -154v-6q98 -20 160.5 -81.5t62.5 -158.5q0 -146 -102.5 -217t-274.5 -71q-204 0 -344 90v65q82 -28 146.5 -39.5t150.5 -11.5q110 0 182 50.5t72 144.5q0 148 -141 190
q-175 -12 -246 -12h-30v96h30q28 0 113 -4.5t113 -7.5q55 15 88.5 62t33.5 116q0 85 -56 126.5t-153 41.5q-44 0 -93.5 -12t-75.5 -29l-58 -113h-47l-2 197q128 38 270 35q73 0 137 -12t118 -36.5t88 -67.5t40 -99q33 15 42 24.5t26 46.5l88 -12v-64q0 -50 4.5 -86t16.5 -69
t36.5 -49.5t61.5 -16.5q85 0 149 125z" />
    <glyph glyph-name="uni025E" unicode="&#x25e;" horiz-adv-x="905" 
d="M750 659v-2q0 52 -39 86t-93.5 47t-121.5 13q-103 0 -180.5 -40t-120.5 -110q-43 -73 -43 -180q0 -157 93 -245.5t251 -88.5q66 0 121 13.5t94 48.5t39 88q0 68 -66 105t-160 48q-26 -2 -164 -12h-20v96h20q34 0 154 -12q59 4 109 18.5t88.5 47.5t38.5 79zM496 -23
q-214 0 -321 130t-107 364q0 152 52 263.5t148 170.5q97 60 228 60q153 0 247.5 -71t94.5 -206q0 -81 -57 -136t-138 -71v-6q84 -12 139.5 -71.5t55.5 -147.5q0 -136 -93.5 -207.5t-248.5 -71.5z" />
    <glyph glyph-name="uni025F" unicode="&#x25f;" horiz-adv-x="681" 
d="M604 72h-168v-64q0 -277 -166 -393q-80 -57 -184 -57q-125 0 -207 28v244h66l30 -137q40 -49 131 -49q140 0 140 188v240h-203v84h203v704l-172 27v53h516v-53l-152 -27v-704h166v-84z" />
    <glyph glyph-name="uni0260" unicode="&#x260;" horiz-adv-x="1024" 
d="M717 1010l-4 -2q0 93 18 170t54.5 136.5t98 92.5t142.5 33q72 0 143 -19v-204h-49l-45 122q-35 21 -80 21q-64 0 -88 -55t-24 -209v-1100q0 -213 -105 -325.5t-313 -112.5q-116 0 -266 30v262h55l43 -165q81 -47 178 -47q73 0 121.5 24t74.5 73t36 110.5t10 150.5v113
q-120 -126 -293 -129q-347 0 -350 473q0 150 40 262.5t129.5 181t221.5 68.5q91 0 151 -29t101 -88v162zM250 451h2q0 -64 5 -115t18.5 -101.5t36.5 -84t60.5 -54t88.5 -20.5q80 0 136.5 25.5t115.5 76.5v322q0 77 -13 143.5t-39.5 122t-74 87.5t-111.5 32q-225 0 -225 -434
z" />
    <glyph glyph-name="uni0261" unicode="&#x261;" horiz-adv-x="1024" 
d="M254 453h2q0 -64 5 -115t18.5 -101.5t36.5 -84t60.5 -54t88.5 -20.5q80 0 136.5 25.5t115.5 76.5v322q0 77 -13 143.5t-39.5 122t-74 87.5t-111.5 32q-225 0 -225 -434zM467 965q91 0 151 -29t101 -88l18 92h148v-944q0 -213 -105 -325.5t-313 -112.5q-116 0 -266 30v262
h55l43 -165q81 -47 178 -47q73 0 121.5 24t74.5 73t36 110.5t10 150.5v113q-120 -126 -293 -129q-347 0 -350 473q0 150 40 262.5t129.5 181t221.5 68.5z" />
    <glyph glyph-name="uni0262" unicode="&#x262;" horiz-adv-x="927" 
d="M504 53h-6q41 0 93 12.5t79 28.5v260l-117 27v45h371v-45l-88 -25v-311q-183 -65 -332 -65q-217 0 -332 127.5t-115 355.5q0 243 110.5 372.5t336.5 129.5q153 0 307 -45v-234h-61l-23 139q-82 64 -215 64q-81 0 -136.5 -31t-85.5 -90.5t-42 -132t-12 -170.5
q0 -89 13.5 -160t43.5 -129.5t83.5 -90.5t127.5 -32z" />
    <glyph glyph-name="uni0263" unicode="&#x263;" horiz-adv-x="1024" 
d="M596 111l-2 -2q83 -213 117 -328q33 -112 49 -213l-375 -10l-59 28q10 88 32 164q23 79 101 264l-363 856l-96 25v45h438v-45l-149 -27l260 -643l276 645l-149 25v45h348v-45l-90 -21zM580 -354l-2 -2q-14 111 -78 260q-35 -77 -58 -154q-20 -67 -20 -104l18 -8z" />
    <glyph glyph-name="uni0264" unicode="&#x264;" horiz-adv-x="907" 
d="M909 895l-121 -23q-154 -193 -266 -368q119 -254 160 -512l-406 -12l-69 28q27 181 160 424q-88 175 -261 438l-106 25v45h268q125 -190 201 -338q109 167 242 338h198v-45zM313 70l21 -7l162 7q-17 118 -78 258q-85 -157 -105 -258z" />
    <glyph glyph-name="uni0265" unicode="&#x265;" horiz-adv-x="1024" 
d="M473 92h2q37 0 112 10.5t111 18.5v749l-127 25v45h412v-45l-119 -25v-1245l140 -16v-45h-306v362q0 96 7 150q-184 -101 -318 -101q-246 0 -246 277v618l-114 25v45h405v-45l-125 -25v-606q0 -172 166 -172z" />
    <glyph glyph-name="uni0266" unicode="&#x266;" horiz-adv-x="1024" 
d="M637 965l-2 -2q246 0 246 -277v-618l114 -25v-45h-405v45l125 25v606q0 172 -166 172q-85 0 -227 -29v-749l127 -25v-45h-412v45l119 25v940q0 93 18 170t54.5 136.5t98 92.5t142.5 33q72 0 143 -19v-204h-49l-45 122q-34 21 -80 21q-64 0 -88 -55t-24 -209v-82
q0 -96 -7 -150q66 38 156.5 69.5t161.5 31.5z" />
    <glyph glyph-name="uni0267" unicode="&#x267;" horiz-adv-x="1024" 
d="M883 -39l-4 -2q0 -184 -71.5 -290.5t-225.5 -106.5q-66 0 -148 18v199h47l27 -109q36 -28 86 -28q61 0 90 63q31 67 31 203v766q0 172 -166 172q-85 0 -227 -29v-749l127 -25v-45h-412v45l119 25v940q0 93 18 170t54.5 136.5t98 92.5t142.5 33q72 0 143 -19v-204h-49
l-45 122q-34 21 -80 21q-64 0 -88 -55t-24 -209v-82q0 -96 -7 -150q66 38 156.5 69.5t161.5 31.5q246 0 246 -277v-727z" />
    </font>
</defs>
</svg>
