<?xml version="1.0" standalone="no"?>
<!DOCTYPE svg PUBLIC "-//W3C//DTD SVG 1.1//EN" "http://www.w3.org/Graphics/SVG/1.1/DTD/svg11.dtd" >
<svg xmlns="http://www.w3.org/2000/svg" xmlns:xlink="http://www.w3.org/1999/xlink" version="1.1">
<metadata>
Created by FontForge 20201107 at Tue Mar 11 15:35:58 2025
 By 
Digitized data copyright (c) 2010 Google Corporation.
 Ascender Corporation. Copyright (c) 2012 Red Hat, Inc. Copyright (c) 2016 Stefan Peev, Context Ltd.
</metadata>
<defs>
<font id="LibraSerifModern-Bold" horiz-adv-x="0" >
  <font-face 
    font-family="Libra Serif Modern"
    font-weight="700"
    font-stretch="normal"
    units-per-em="2048"
    panose-1="2 0 8 3 8 0 0 2 0 4"
    ascent="1638"
    descent="-410"
    x-height="938"
    cap-height="1341"
    bbox="-1114 -621 2753 2060"
    underline-thickness="194"
    underline-position="-511"
    unicode-range="U+000D-FFFC"
  />
<missing-glyph horiz-adv-x="1200" 
d="M102 0v1085h996v-1085h-996zM141 152q132 290 414 575q-79 36 -158 51q-146 -250 -256 -626zM713 641q-165 -84 -296.5 -204.5t-260.5 -289.5q363 255 696 375q-74 77 -139 119zM199 147h860q-17 116 -82 207q-204 -27 -415 -83.5t-363 -123.5z" />
    <glyph glyph-name=".notdef" horiz-adv-x="1200" 
d="M102 0v1085h996v-1085h-996zM141 152q132 290 414 575q-79 36 -158 51q-146 -250 -256 -626zM713 641q-165 -84 -296.5 -204.5t-260.5 -289.5q363 255 696 375q-74 77 -139 119zM199 147h860q-17 116 -82 207q-204 -27 -415 -83.5t-363 -123.5z" />
    <glyph glyph-name=".null" 
 />
    <glyph glyph-name=".null" 
 />
    <glyph glyph-name="nonmarkingreturn" unicode="&#xd;" horiz-adv-x="512" 
 />
    <glyph glyph-name="space" unicode=" " horiz-adv-x="512" 
 />
    <glyph glyph-name="exclam" unicode="!" horiz-adv-x="681" 
d="M397 420h-114l-93 921h299zM340 -29q-70 0 -119 49t-49 119t49 119t119 49t119 -49t49 -119t-49 -119t-119 -49z" />
    <glyph glyph-name="quotedbl" unicode="&#x22;" horiz-adv-x="1136" 
d="M653 1341h258l-77 -481h-105zM227 1341h258l-77 -481h-105z" />
    <glyph glyph-name="numbersign" unicode="#" horiz-adv-x="1024" 
d="M741 412l-75 -412h-144l76 412h-270l-74 -412h-145l75 412h-157v123h182l53 286h-235v123h258l73 397h144l-74 -397h270l74 397h143l-73 -397h155v-123h-178l-51 -286h229v-123h-256zM406 821l-54 -286h271l53 286h-270z" />
    <glyph glyph-name="dollar" unicode="$" horiz-adv-x="1024" 
d="M467 -20l-10 -3q-100 3 -224 25q-111 20 -170 47v320h93l37 -187q30 -40 114 -71q82 -30 148 -33v487q-165 63 -236 121q-65 53 -104 133q-37 75 -37 197q0 144 104 235q106 92 277 107v129h100v-127q154 -6 307 -43v-279h-92l-31 144q-28 28 -77 49q-50 21 -105 24v-413
q112 -44 178 -78q48 -25 92 -62q44 -38 70 -75q33 -48 47 -103q17 -66 17 -135q0 -176 -107 -283t-291 -122v-140h-100v136zM741 328l-2 4q0 50 -18 84q-19 37 -51 59q-39 27 -115 53v-450q86 15 137 78q49 61 49 172zM291 1069v4q0 -43 16 -80q14 -32 45 -57t105 -55v374
q-80 -12 -123 -61t-43 -125z" />
    <glyph glyph-name="percent" unicode="%" horiz-adv-x="2048" 
d="M639 -20h-150l949 1382h151zM860 995h2q0 -372 -330 -372q-160 0 -241 96q-80 95 -80 276q0 367 326 367q158 0 241 -92q82 -91 82 -275zM647 995l-2 -2q0 145 -27 209t-86 64q-55 0 -79 -62q-25 -64 -25 -211q0 -153 25 -217q24 -61 79 -61q59 0 86 65q29 69 29 215z
M1855 344q0 -373 -327 -373q-160 0 -242 97q-80 95 -80 276q0 177 80 272t250 95q159 0 240 -93q79 -91 79 -274zM1640 344l-2 -2q0 147 -26 209q-26 63 -86 63q-56 0 -80 -61q-25 -64 -25 -211q0 -153 25 -217q24 -62 80 -62q58 0 86 66q28 67 28 215z" />
    <glyph glyph-name="ampersand" unicode="&#x26;" horiz-adv-x="1705" 
d="M1042 1073l-6 2q0 -75 -30 -131q-29 -53 -86 -98q-51 -40 -175 -88l381 -344q53 134 62 307l-113 27v63h477v-63l-108 -27l-29 -90q-63 -209 -149 -338l221 -199l115 -24v-64h-383l-119 111q-174 -128 -443 -131q-274 0 -405 94q-133 95 -133 282q0 94 35 166
q34 70 96 123q63 54 180 99q-127 145 -127 319q0 139 98 215q101 78 281 78q176 0 268 -74t92 -215zM653 88l-2 -4q207 0 340 121l-477 442q-70 -48 -98 -112q-31 -70 -31 -168q0 -142 72 -211q71 -68 196 -68zM547 1087l-2 -2q0 -60 22 -118q20 -53 86 -125q79 42 105 96
q28 58 28 149q0 173 -110 173q-68 0 -98 -43q-31 -45 -31 -130z" />
    <glyph glyph-name="quotesingle" unicode="'" horiz-adv-x="567" 
d="M156 1341h258l-78 -481h-105z" />
    <glyph glyph-name="parenleft" unicode="(" horiz-adv-x="681" 
d="M362 494l-2 -7q0 -231 25 -381q23 -140 80 -253q56 -112 147 -179v-114q-200 105 -309 229q-112 127 -164 295q-51 165 -51 410q0 234 53 405q52 169 164 293q109 121 311 227v-114q-90 -72 -145 -179q-55 -106 -82 -252q-27 -144 -27 -380z" />
    <glyph glyph-name="parenright" unicode=")" horiz-adv-x="681" 
d="M66 -436l2 110q91 72 145 181q56 112 80 258q24 147 24 381q0 241 -26 380q-27 146 -82 252q-55 108 -148 179v114q206 -111 312 -229q112 -125 164 -291q53 -171 53 -405q0 -243 -51 -408q-52 -169 -164 -293q-109 -121 -309 -229z" />
    <glyph glyph-name="asterisk" unicode="*" horiz-adv-x="1024" 
d="M555 895l74 -315h-234l72 319l-289 -235l-92 213l305 88l-305 90l92 213l289 -234l-72 318h234l-74 -318l289 228l94 -209l-311 -88l311 -86l-94 -211z" />
    <glyph glyph-name="plus" unicode="+" horiz-adv-x="1165" 
d="M655 608v-405h-143v405h-403v144h403v405h143v-405h406v-144h-406z" />
    <glyph glyph-name="comma" unicode="," horiz-adv-x="512" 
d="M434 106l-4 7q0 -158 -104 -265t-303 -159v92q60 17 110 49q45 29 70 68q24 38 24 71q0 23 -14 37q-20 20 -61 41q-76 40 -76 123q0 65 45 98q47 35 117 35q86 0 141 -55t55 -142z" />
    <glyph glyph-name="hyphen" unicode="-" horiz-adv-x="681" 
d="M76 395v174h530v-174h-530z" />
    <glyph glyph-name="period" unicode="." horiz-adv-x="512" 
d="M256 -29q-70 0 -119 49t-49 119t49 119t119 49t119 -49t49 -119t-49 -119t-119 -49z" />
    <glyph glyph-name="slash" unicode="/" horiz-adv-x="567" 
d="M121 -20h-141l471 1370h139z" />
    <glyph glyph-name="zero" unicode="0" horiz-adv-x="1024" 
d="M946 676h-2q0 -696 -440 -696q-212 0 -320 178q-106 175 -106 518q0 334 108 510t326 176q214 0 324 -174t110 -512zM651 676l-2 -2q0 308 -35 448q-34 138 -110 138q-75 0 -105 -132t-30 -454q0 -326 30 -461t105 -135q72 0 110 139q37 136 37 459z" />
    <glyph glyph-name="one" unicode="1" horiz-adv-x="1024" 
d="M684 111l234 -25v-86h-754v86l231 25v1009l-229 -76v86l377 222h141v-1241z" />
    <glyph glyph-name="two" unicode="2" horiz-adv-x="1024" 
d="M936 0l-848 -2v188q86 92 160 166q155 152 233 246q75 90 109 188q35 100 35 224q0 107 -54 176q-52 67 -141 67q-60 0 -98 -12q-34 -11 -70 -39l-43 -194h-86v305q75 17 158 30t166 13q220 0 338 -92q116 -91 116 -260q0 -107 -34 -191q-35 -87 -111 -166
q-83 -86 -301 -262q-32 -26 -186 -160h657v-225z" />
    <glyph glyph-name="three" unicode="3" horiz-adv-x="1024" 
d="M954 365l-6 -9q0 -181 -131 -282t-364 -101q-184 0 -371 41l-10 324h92l51 -215q86 -50 182 -47q120 0 189 78q67 76 67 215q0 120 -55 184q-56 65 -178 74l-115 6v123l113 6q88 6 131 67t43 181q0 114 -49 178q-48 63 -142 63q-49 0 -86 -16q-24 -11 -65 -35l-43 -194
h-88v305q109 29 176 37q65 8 145 8q452 0 455 -330q0 -136 -74 -219q-75 -84 -205 -105q338 -41 338 -337z" />
    <glyph glyph-name="four" unicode="4" horiz-adv-x="1024" 
d="M852 264v-264h-268v264h-555v164l604 920h219v-879h133v-205h-133zM584 866v-2q0 102 10 215l-399 -610h389v397z" />
    <glyph glyph-name="five" unicode="5" horiz-adv-x="1024" 
d="M479 793l-6 2q237 0 354 -99t117 -297q0 -204 -125 -311q-126 -108 -358 -108q-189 0 -371 40l-12 324h92l51 -215q48 -25 98 -35q59 -12 105 -12q229 0 229 307q0 163 -57 232q-59 71 -186 71q-73 0 -129 -26l-31 -13h-100v688h700v-223h-590v-352q120 27 219 27z" />
    <glyph glyph-name="six" unicode="6" horiz-adv-x="1024" 
d="M965 416l-2 4q0 -212 -111 -326q-109 -112 -309 -112q-230 0 -353 176q-122 174 -122 508q0 215 65 372q66 160 180 240q116 82 269 82q159 0 301 -43v-305h-86l-43 194q-68 51 -154 51q-100 0 -162 -129q-62 -130 -71 -358q109 47 215 47q181 0 282 -104t101 -297z
M539 86l-2 -2q75 0 102 80q29 85 29 237q0 143 -39 217q-40 76 -117 76q-70 0 -150 -22v-6q0 -580 177 -580z" />
    <glyph glyph-name="seven" unicode="7" horiz-adv-x="1024" 
d="M205 958h-88v383h858v-79l-522 -1262h-240l565 1118h-528z" />
    <glyph glyph-name="eight" unicode="8" horiz-adv-x="1024" 
d="M926 1012l4 -2q0 -112 -56 -189q-55 -76 -153 -110q114 -43 176 -133q61 -88 61 -216q0 -192 -110 -286q-113 -96 -340 -96q-438 0 -438 382q0 128 61 216t170 129q-95 37 -147 114q-54 79 -54 191q0 164 109 256t307 92q192 0 301 -92t109 -256zM676 360l-2 -2
q0 156 -39 224q-40 69 -125 69q-82 0 -119 -67t-37 -226q0 -156 37 -217t117 -61q86 0 127 65t41 215zM643 1008l-2 -2q0 134 -33 190q-35 59 -100 59q-64 0 -94 -59q-31 -60 -31 -190q0 -134 31 -191q30 -55 96 -55q73 0 102 57q31 60 31 191z" />
    <glyph glyph-name="nine" unicode="9" horiz-adv-x="1024" 
d="M55 932q0 204 117 315t324 111q236 0 344 -166t108 -518q0 -229 -63 -381q-65 -156 -185 -236q-121 -80 -288 -80q-170 0 -312 43v306h88l43 -195q37 -26 84 -37q50 -12 95 -12q108 0 170 123q62 124 71 354q-104 -37 -207 -37q-178 0 -284 109q-105 108 -105 301z
M350 928v-2q0 -287 156 -287q76 0 149 18v15q0 300 -32 436q-35 147 -123 147q-150 0 -150 -327z" />
    <glyph glyph-name="colon" unicode=":" horiz-adv-x="681" 
d="M334 -29h4q-70 0 -119 49t-49 119q0 69 47 119q46 49 117 49q70 0 119 -49t49 -119t-49 -119t-119 -49zM338 629l4 -2q-70 0 -119 49t-49 119q0 68 47 118t121 50q70 0 117 -50t47 -116q0 -70 -49 -119t-119 -49z" />
    <glyph glyph-name="semicolon" unicode=";" horiz-adv-x="681" 
d="M336 629l4 -2q-70 0 -119 49t-49 119q0 68 47 118t121 50q70 0 117 -50t47 -116q0 -70 -49 -119t-119 -49zM518 104l-2 11q0 -158 -104 -265t-303 -159v92q60 17 110 49q45 29 70 68q24 38 24 71q0 21 -16 37q-17 17 -61 37q-77 41 -74 123q0 59 43 96t119 37
q84 0 139 -55t55 -142z" />
    <glyph glyph-name="less" unicode="&#x3c;" horiz-adv-x="1165" 
d="M102 635v90l953 469v-143l-768 -371l768 -371v-143z" />
    <glyph glyph-name="equal" unicode="=" horiz-adv-x="1165" 
d="M1055 547v-144h-953v144h953zM1055 956v-143h-953v143h953z" />
    <glyph glyph-name="greater" unicode="&#x3e;" horiz-adv-x="1165" 
d="M104 166v143l768 371l-768 371v143l953 -469v-90z" />
    <glyph glyph-name="question" unicode="?" horiz-adv-x="1024" 
d="M444 -29q-70 0 -116 49q-47 50 -47 119t47 119q46 49 116 49t119 -49t49 -119t-49 -119t-119 -49zM492 389l-105 4l-55 314l94 24q104 27 145 92t41 172q0 138 -49 199t-160 61q-82 0 -147 -41l-43 -194h-88v295q165 43 324 43q455 0 452 -354q0 -145 -76 -246t-221 -142
l-86 -24z" />
    <glyph glyph-name="at" unicode="@" horiz-adv-x="1904" 
d="M1798 752l-12 -15q0 -189 -98 -354q-99 -166 -265 -268q-168 -103 -350 -103q-126 0 -129 125l-51 -43q-101 -82 -221 -82q-84 0 -135 72q-50 71 -50 188q0 130 52 252t141 211q88 88 203 135q110 45 288 45q78 0 183 -10l-121 -540q-7 -30 -14 -86q-7 -58 -7 -70
q0 -22 9 -37q10 -16 43 -16q95 0 172 80q76 79 123 219q45 134 45 293q0 242 -142 378t-391 136q-226 0 -403 -113q-180 -115 -281 -322q-102 -209 -102 -467q0 -189 73 -335q74 -148 211 -230t322 -82q145 0 276 41t265 135l45 -63q-140 -113 -291 -166q-146 -51 -326 -51
q-227 0 -399 94q-173 95 -264 266q-93 175 -93 393q0 286 129 517q129 230 353 356q227 127 497 127q340 0 529 -160q186 -158 186 -450zM727 301h2q0 -67 23 -108q21 -37 49 -37q35 0 78 18q38 16 73 47l121 561q-20 4 -61 4q-102 0 -156 -51q-55 -52 -92 -180
q-37 -127 -37 -254z" />
    <glyph glyph-name="A" unicode="A" horiz-adv-x="1478" 
d="M428 74v-74h-408v74l101 26l477 1252h289l475 -1252l102 -26v-74h-598v74l156 26l-127 346h-516l-123 -346zM641 1151l-221 -594h436z" />
    <glyph glyph-name="B" unicode="B" horiz-adv-x="1363" 
d="M879 1010h-2q0 118 -52 170q-53 53 -166 53h-139v-467h148q107 0 159 55t52 189zM977 391h2q0 132 -68 197t-217 65h-172v-542q168 -7 228 -7q115 0 172 72q55 70 55 215zM35 0l-4 68l172 26v1141l-172 27v73h649q265 0 395 -71q129 -70 129 -232q0 -121 -74 -207
q-73 -85 -200 -112q187 -18 282 -101q97 -85 97 -223q0 -193 -144 -295q-141 -100 -413 -100l-455 6h-262z" />
    <glyph glyph-name="C" unicode="C" horiz-adv-x="1478" 
d="M815 -20v-3q-338 0 -526 179q-189 180 -189 495q0 345 181 523t534 178q232 0 483 -68l7 -321h-91l-26 194q-134 90 -307 90q-231 0 -338 -143t-107 -449q0 -279 111 -426t325 -147q112 0 197 31q83 30 133 71l33 219h90l-6 -340q-90 -35 -234 -59t-270 -24z" />
    <glyph glyph-name="D" unicode="D" horiz-adv-x="1478" 
d="M1047 670q0 291 -105 426t-344 135h-74v-1116q94 -9 172 -9q128 0 205 56q76 55 111 176q35 122 35 332zM674 1341l2 -4q360 0 532 -163t172 -498q0 -343 -166 -512q-165 -168 -499 -168l-449 4h-229v74l172 26v1141l-172 27v73h637z" />
    <glyph glyph-name="E" unicode="E" horiz-adv-x="1363" 
d="M35 74l172 26v1141l-172 27v73h1143v-342h-93l-30 218q-106 14 -326 14h-207v-492h350l31 148h90v-412h-90l-31 152h-350v-516h252q253 0 338 16l57 248h93l-21 -375h-1206v74z" />
    <glyph glyph-name="F" unicode="F" horiz-adv-x="1249" 
d="M522 571v-471l223 -26v-74h-698v74l160 26v1141l-172 27v73h1118v-360h-94l-33 236q-60 7 -162 10q-152 4 -178 4h-164v-549h328l31 170h88v-453h-88l-31 172h-328z" />
    <glyph glyph-name="G" unicode="G" horiz-adv-x="1591" 
d="M1407 70l2 -4q-135 -43 -289 -66q-170 -25 -295 -25q-216 0 -381 80q-161 78 -251 234q-89 154 -89 362q0 339 193 520q195 183 549 183q88 0 158 -6q63 -5 133 -19q76 -15 227 -57v-309h-90l-25 174q-84 55 -174 84q-95 30 -196 30q-231 0 -340 -145
q-107 -143 -107 -449q0 -285 113 -428q115 -145 325 -145q115 0 222 35v387l-172 26v74h616v-74l-129 -26v-436z" />
    <glyph glyph-name="H" unicode="H" horiz-adv-x="1591" 
d="M35 0v74l172 26v1141l-172 27v73h659v-73l-172 -27v-496h547v496l-172 27v73h662v-73l-173 -27v-1141l173 -26v-74h-662v74l172 26v535h-547v-535l172 -26v-74h-659z" />
    <glyph glyph-name="I" unicode="I" horiz-adv-x="796" 
d="M555 100l172 -26v-74h-657v74l172 26v1141l-172 27v73h657v-73l-172 -27v-1141z" />
    <glyph glyph-name="J" unicode="J" horiz-adv-x="1024" 
d="M502 1241l-174 19v73h639v-73l-154 -27v-809q0 -218 -119 -334q-120 -117 -340 -117q-59 0 -149 11q-67 8 -117 22v303h90l31 -178q20 -24 53 -35q34 -12 78 -12q71 0 117 49q45 48 45 143v965z" />
    <glyph glyph-name="K" unicode="K" horiz-adv-x="1591" 
d="M1468 1341v-73l-163 -27l-443 -389l590 -752l125 -26v-74h-438l-500 645l-117 -98v-447l193 -26v-74h-680v74l172 26v1141l-172 27v73h659v-73l-172 -27v-545l611 545l-123 27v73h458z" />
    <glyph glyph-name="L" unicode="L" horiz-adv-x="1363" 
d="M729 1268l-207 -27v-1135h273q211 0 313 21l82 279h90l-39 -406h-1206v74l172 26v1141l-170 27v73h692v-73z" />
    <glyph glyph-name="M" unicode="M" horiz-adv-x="1931" 
d="M883 0h-56l-495 1133v-1033l180 -26v-74h-477v74l172 26v1141l-172 27v73h526l383 -882l391 882h539v-73l-172 -27v-1141l172 -26v-74h-668v74l180 26v1033z" />
    <glyph glyph-name="N" unicode="N" horiz-adv-x="1478" 
d="M1155 1241l-180 27v73h477v-73l-172 -27v-1241h-117l-827 1077v-977l180 -26v-74h-477v74l172 26v1141l-172 27v73h459l657 -858v758z" />
    <glyph glyph-name="O" unicode="O" horiz-adv-x="1591" 
d="M432 672v-2q0 -319 86 -455q86 -135 277 -135q188 0 276 137t88 455q0 317 -88 448q-89 133 -276 133q-191 0 -277 -133t-86 -448zM100 670v-4q0 684 697 684q345 0 520 -172q176 -173 176 -510q0 -341 -178 -516t-518 -175q-338 0 -518 177q-179 176 -179 516z" />
    <glyph glyph-name="P" unicode="P" horiz-adv-x="1249" 
d="M870 944l2 -2q0 158 -59 223q-58 64 -209 64h-80v-594h84q140 0 201 70t61 239zM524 524v-426l224 -26v-74h-699v74l160 26v1141l-172 27v73h592q286 0 426 -94q141 -95 141 -301q0 -420 -491 -420h-181z" />
    <glyph glyph-name="Q" unicode="Q" horiz-adv-x="1591" 
d="M100 672l-2 -2q0 684 697 684q345 0 520 -172q176 -173 176 -510q0 -498 -375 -639l51 -62q147 -184 252 -184q55 0 82 8v-86q-21 -9 -98 -24q-76 -15 -137 -15q-69 0 -129 13q-49 11 -105 41q-46 25 -94 73q-38 38 -154 183q-335 3 -510 178q-174 174 -174 514zM430 670
v-2q0 -319 86 -455q86 -135 277 -135q188 0 276 137t88 455q0 317 -88 448q-89 133 -276 133q-191 0 -277 -133t-86 -448z" />
    <glyph glyph-name="R" unicode="R" horiz-adv-x="1478" 
d="M522 567v-465l172 -26v-74h-647v74l160 26v1141l-172 27v73h641q297 0 442 -92q146 -93 146 -284q0 -288 -271 -371l359 -496l145 -26v-74h-434l-375 567h-166zM952 967l-2 -2q0 151 -61 209q-62 59 -225 59h-142v-553h146q154 0 219 65t65 222z" />
    <glyph glyph-name="S" unicode="S" horiz-adv-x="1138" 
d="M109 412l84 2l45 -215q41 -46 129 -82q82 -33 176 -33q286 0 286 235q0 73 -55 125q-56 53 -172 93q-182 62 -248 94q-79 39 -129 86q-52 49 -82 117t-30 165q0 177 120 269q121 92 351 92q171 0 374 -43v-320h-90l-45 185q-101 73 -237 73q-127 0 -189 -45
q-65 -47 -65 -141q0 -69 55 -115q56 -47 172 -84q231 -77 315 -131q86 -56 132 -137q45 -80 45 -192q0 -427 -504 -430q-114 0 -234 18q-116 17 -204 53v361z" />
    <glyph glyph-name="T" unicode="T" horiz-adv-x="1363" 
d="M309 0l-2 74l213 26v1135h-51q-231 0 -322 -21l-26 -247h-90v374h1302v-374h-92l-27 247q-87 19 -325 19h-49v-1133l213 -26v-74h-744z" />
    <glyph glyph-name="U" unicode="U" horiz-adv-x="1478" 
d="M838 123q149 0 233 84q82 82 82 246v788l-178 27v73h455v-73l-152 -27v-780q0 -232 -135 -355q-134 -122 -383 -122q-269 0 -412 125t-143 362v772l-152 27v73h639v-73l-172 -27v-786q0 -162 80 -248t238 -86z" />
    <glyph glyph-name="V" unicode="V" horiz-adv-x="1478" 
d="M1456 1341v-73l-127 -27l-518 -1272h-133l-545 1272l-110 27v73h583v-73l-139 -27l377 -879l352 879l-135 27v73h395z" />
    <glyph glyph-name="W" unicode="W" horiz-adv-x="2048" 
d="M1501 -31h-123l-334 828l-331 -828h-123l-445 1272l-116 27v73h602v-73l-158 -27l287 -799l313 785h125l315 -783l238 797l-170 27v73h434v-73l-117 -27z" />
    <glyph glyph-name="X" unicode="X" horiz-adv-x="1478" 
d="M330 100l166 -26v-74h-457v74l147 26l430 547l-383 594l-151 27v73h653v-73l-170 -27l234 -360l284 360l-165 27v73h458v-73l-147 -27l-365 -463l439 -678l151 -26v-74h-651v74l170 26l-291 447z" />
    <glyph glyph-name="Y" unicode="Y" horiz-adv-x="1478" 
d="M911 528v-428l213 -26v-74h-741v74l213 26v422l-410 719l-149 27v73h688v-73l-178 -27l305 -561l297 561l-166 27v73h457v-73l-142 -27z" />
    <glyph glyph-name="Z" unicode="Z" horiz-adv-x="1363" 
d="M98 115l742 1118h-240q-228 0 -319 -21l-31 -211h-90v338h1036v-106l-747 -1131h280q105 0 225 13q100 11 158 22l59 256h91l-27 -393h-1137v115z" />
    <glyph glyph-name="bracketleft" unicode="[" horiz-adv-x="681" 
d="M152 -274v1695h456v-67l-202 -41v-1479l202 -41v-67h-456z" />
    <glyph glyph-name="backslash" unicode="\" horiz-adv-x="567" 
d="M-20 1350h141l469 -1370h-141z" />
    <glyph glyph-name="bracketright" unicode="]" horiz-adv-x="681" 
d="M74 -274v67l202 41v1479l-202 41v67h456v-1695h-456z" />
    <glyph glyph-name="asciicircum" unicode="^" horiz-adv-x="1189" 
d="M926 389l-330 762l-332 -762h-141l428 952h88l428 -952h-141z" />
    <glyph glyph-name="underscore" unicode="_" horiz-adv-x="1024" 
d="M-16 -285v144h1056v-144h-1056z" />
    <glyph glyph-name="grave" unicode="`" horiz-adv-x="681" 
d="M453 1118l-365 268v37h285l166 -272v-33h-86z" />
    <glyph glyph-name="a" unicode="a" horiz-adv-x="1024" 
d="M547 961v-5q352 0 352 -260v-610l94 -25v-65h-346l-22 72q-79 -54 -140 -72q-65 -19 -127 -19q-290 0 -290 281q0 108 43 172t122 94t256 33l123 4v137q0 170 -139 170q-82 0 -188 -53l-37 -117h-68v228q167 23 221 28q82 7 146 7zM610 467l-88 -6q-96 -3 -133 -49
t-37 -152q0 -83 31 -125q29 -39 80 -39q66 0 147 35v336z" />
    <glyph glyph-name="b" unicode="b" horiz-adv-x="1138" 
d="M764 498h-4q0 187 -45 270q-47 86 -150 86q-43 0 -82 -8q-44 -9 -71 -27v-719q64 -15 155 -12q98 0 148 96q49 94 49 314zM119 1333l-99 23v65h386v-346q0 -73 -11 -188q39 33 115 55q80 23 145 23q207 0 301 -111q95 -112 95 -356q0 -242 -121 -381q-119 -137 -338 -137
q-165 0 -473 67v1286z" />
    <glyph glyph-name="c" unicode="c" horiz-adv-x="907" 
d="M858 57l2 -6q-46 -37 -125 -55q-84 -19 -164 -19q-250 0 -374 121q-123 120 -123 369q0 156 55 266q56 112 160 170q108 60 243 60q137 0 306 -35v-279h-72l-43 166q-40 28 -68 35q-38 10 -86 10q-56 0 -106 -47q-49 -46 -76 -131q-27 -86 -27 -205q0 -201 62 -287
t201 -86q129 0 235 29v-76z" />
    <glyph glyph-name="d" unicode="d" horiz-adv-x="1138" 
d="M733 53h-4q-53 -36 -86 -49q-30 -12 -68 -18q-37 -6 -81 -6q-208 0 -310 120q-100 118 -100 369q0 242 109 369t317 127q108 0 219 -27q-7 39 -4 156v237l-96 25v65h385v-1331l102 -24v-66h-362zM373 475l-2 -2q0 -185 47 -285q46 -98 135 -98q81 0 168 43v709
q-73 20 -160 20q-90 0 -139 -98t-49 -289z" />
    <glyph glyph-name="e" unicode="e" horiz-adv-x="907" 
d="M494 963h4q191 0 276 -101q86 -103 86 -315v-82h-493v-16q0 -151 24 -216q23 -62 78 -98q50 -33 147 -33q79 0 224 29v-76q-54 -34 -144 -55q-84 -20 -172 -20q-231 0 -342 120q-110 119 -110 375q0 248 104 367q106 121 318 121zM487 862h2q-58 0 -88 -65t-30 -228h217
q0 140 -8 189q-9 55 -31 80q-21 24 -62 24z" />
    <glyph glyph-name="f" unicode="f" horiz-adv-x="681" 
d="M158 836h-146v69l144 39v100q0 194 98 295q100 103 283 103q94 0 165 -19v-225h-63l-31 111q-25 25 -61 22q-101 0 -101 -254v-137h191v-104h-191v-746l152 -24v-66h-543v66l103 24v746z" />
    <glyph glyph-name="g" unicode="g" horiz-adv-x="1024" 
d="M256 346l-6 -10q-179 77 -176 295q0 155 108 241q109 86 312 86q42 0 110 -6q63 -6 98 -16l226 111l35 -43l-115 -162q60 -75 63 -209q0 -162 -106 -246q-109 -86 -313 -86q-81 0 -154 12l-23 -75q3 -31 37 -54q34 -24 86 -24h219q342 0 342 -264q0 -107 -59 -187
t-174 -123q-116 -43 -289 -43q-201 0 -315 60q-111 59 -111 159q0 45 37 88q39 45 141 105q-57 20 -98 80q-41 59 -41 123zM778 -176l2 4q0 94 -127 94h-315q-88 -64 -88 -143q0 -64 61 -98q59 -33 168 -33q144 0 221 47q78 47 78 129zM489 403q75 0 109 58q35 59 35 172
q0 117 -33 170q-34 55 -111 55q-70 0 -100 -55q-31 -57 -31 -170q0 -112 31 -172q30 -58 100 -58z" />
    <glyph glyph-name="h" unicode="h" horiz-adv-x="1138" 
d="M436 1014h2q0 -66 -6 -154l70 35q144 72 254 72q260 0 260 -277v-598l94 -24v-66h-467v66l84 24v559q0 83 -37 129q-38 47 -100 47q-79 0 -154 -34v-703l86 -24v-66h-467v66l92 24v1241l-96 25v65h385v-407z" />
    <glyph glyph-name="i" unicode="i" horiz-adv-x="567" 
d="M436 90l103 -24v-66h-494v66l102 24v760l-96 24v66h385v-850zM137 1268l-4 8q0 66 45 108q46 43 111 43t110 -45t45 -110t-43 -111q-42 -45 -108 -45q-65 0 -111 43q-45 42 -45 109z" />
    <glyph glyph-name="j" unicode="j" horiz-adv-x="681" 
d="M553 1268l-4 4q0 -65 -43 -111q-42 -45 -109 -45q-64 0 -110 43q-45 42 -45 109q0 65 45 110t110 45q66 0 111 -45t45 -110zM541 -35l2 -2q0 -189 -101 -293t-288 -104q-90 0 -172 18v226h63l43 -115q25 -19 49 -19q54 0 84 68q31 70 31 188v912l-166 35v65h455v-979z
" />
    <glyph glyph-name="k" unicode="k" horiz-adv-x="1138" 
d="M436 451l367 401l-101 22v66h359v-66l-109 -22l-223 -236l324 -526l84 -24v-66h-453v66l55 24l-188 330l-115 -80v-250l92 -24v-66h-471v66l90 24v1241l-96 25v65h385v-970z" />
    <glyph glyph-name="l" unicode="l" horiz-adv-x="567" 
d="M430 90l105 -24v-66h-494v66l100 24v1241l-96 25v65h385v-1331z" />
    <glyph glyph-name="m" unicode="m" horiz-adv-x="1705" 
d="M434 858l68 39q141 72 252 72q167 0 223 -121q207 124 346 121q254 0 254 -277v-598l94 -24v-66h-467v66l84 24v559q0 85 -33 129q-35 47 -98 47q-75 0 -160 -43q11 -53 11 -96v-598l94 -24v-66h-467v66l84 24v559q0 85 -33 129q-35 47 -98 47q-70 0 -152 -39v-698
l86 -24v-66h-467v66l92 24v760l-92 24v66h365z" />
    <glyph glyph-name="n" unicode="n" horiz-adv-x="1138" 
d="M434 858l70 37q141 72 252 72q260 0 260 -277v-598l94 -24v-66h-467v66l84 24v559q0 83 -37 129q-38 47 -100 47q-79 0 -154 -34v-703l86 -24v-66h-467v66l92 24v760l-92 24v66h365z" />
    <glyph glyph-name="o" unicode="o" horiz-adv-x="1024" 
d="M514 965q224 0 328 -125t104 -365q0 -247 -105 -371t-335 -124q-428 0 -428 495q0 244 104.5 367t331.5 123zM653 475q0 50 -0.5 75t-2 69t-5.5 67.5t-10.5 57t-17 51t-25.5 36t-36 26t-48 7.5q-20 0 -36.5 -5t-29.5 -16.5t-23 -24t-17.5 -33.5t-12.5 -39t-8.5 -47
t-5.5 -50t-3 -56t-1 -57.5v-60.5q0 -54 0.5 -87.5t3.5 -80t8 -75t15 -61t24.5 -50t36 -29.5t49.5 -12q27 0 48 8t36 26.5t25.5 37t17 52.5t10.5 58t5.5 68.5t2 69.5t0.5 75z" />
    <glyph glyph-name="p" unicode="p" horiz-adv-x="1138" 
d="M410 893h-4q110 75 260 72q197 0 292 -115q97 -117 97 -363q0 -244 -111 -376q-110 -131 -317 -131q-111 0 -215 26q6 -64 6 -147v-205l137 -25v-65h-528v65l102 25v1196l-102 24v66h381zM760 479h-2q0 375 -174 375q-95 0 -172 -39v-709q79 -20 172 -20q176 0 176 393z
" />
    <glyph glyph-name="q" unicode="q" horiz-adv-x="1138" 
d="M377 449l-2 -3q0 -181 47 -270q46 -88 153 -88q39 0 82 12q39 11 72 29v717q-72 16 -151 16q-103 0 -152 -100q-49 -101 -49 -313zM1016 -348l102 -25v-65h-528v65l137 25v215q0 83 10 188q-101 -78 -245 -78q-208 0 -310 123q-100 121 -100 369q0 244 113 369t331 125
q53 0 281 -23l119 43h90v-1331z" />
    <glyph glyph-name="r" unicode="r" horiz-adv-x="907" 
d="M461 745l-2 -2q106 118 194 172t158 54h53v-344h-55l-59 127q-64 0 -144 -27q-87 -29 -139 -63v-572l149 -24v-66h-561v66l121 24v760l-121 24v66h396z" />
    <glyph glyph-name="s" unicode="s" horiz-adv-x="796" 
d="M748 299h-9q0 -157 -96 -238q-94 -79 -281 -79q-69 0 -167 16q-86 14 -140 35v256h66l39 -131q34 -34 92 -58t117 -24q86 0 129 37t43 96q0 53 -41 88q-37 32 -178 76q-143 46 -205 123t-62 190q0 124 97 203q96 78 245 78q89 0 277 -29v-242h-68l-31 111q-30 30 -79 47
q-52 18 -99 18q-70 0 -104 -30q-35 -30 -35 -80q0 -52 43 -86q42 -33 178 -74q147 -48 207 -119q62 -74 62 -184z" />
    <glyph glyph-name="t" unicode="t" horiz-adv-x="681" 
d="M438 -20v2q-136 0 -209 61t-73 176v619h-123v65l145 39l117 213h149v-213h199v-104h-199v-600q0 -62 29 -99q26 -33 72 -33q42 0 129 17v-86q-29 -20 -105 -39q-73 -18 -131 -18z" />
    <glyph glyph-name="u" unicode="u" horiz-adv-x="1138" 
d="M705 82l-72 -37q-141 -72 -252 -72q-260 0 -260 277v598l-94 24v66h383v-649q0 -84 36 -129q38 -47 103 -47q78 0 153 34v703l-86 24v66h375v-850l92 -24v-66h-364z" />
    <glyph glyph-name="v" unicode="v" horiz-adv-x="1024" 
d="M580 -20h-121l-393 870l-66 24v66h481v-66l-112 -26l241 -537l217 539l-110 24v66h307v-66l-68 -20z" />
    <glyph glyph-name="w" unicode="w" horiz-adv-x="1478" 
d="M874 846l218 -535l182 539l-111 24v66h305v-66l-71 -20l-318 -874h-121l-215 528l-213 -528h-120l-334 870l-70 24v66h465v-66l-113 -26l203 -537l217 535h96z" />
    <glyph glyph-name="x" unicode="x" horiz-adv-x="1024" 
d="M31 874v66h501v-66l-104 -26l137 -211l180 213l-94 24v66h322v-66l-84 -20l-264 -309l299 -459l90 -20v-66h-502v66l104 22l-163 254l-220 -256l95 -20v-66h-320v66l84 16l299 350l-268 418z" />
    <glyph glyph-name="y" unicode="y" horiz-adv-x="1024" 
d="M463 -29l-375 877l-65 24v66h481v-66l-113 -26l221 -520l197 522l-111 24v66h308v-66l-68 -20l-371 -913q-66 -168 -112 -236q-50 -75 -107 -111q-56 -36 -135 -36q-83 0 -166 18v244h62l43 -127q30 -23 73 -23q39 0 68 19q30 20 53 53q27 39 49 84q36 75 68 147z" />
    <glyph glyph-name="z" unicode="z" horiz-adv-x="907" 
d="M41 0l-2 43l430 805h-107q-59 0 -106 -8q-51 -9 -74 -25l-30 -156h-72v281h729v-49l-430 -801h149q60 0 121 12q60 12 90 35l54 217h71l-26 -354h-797z" />
    <glyph glyph-name="braceleft" unicode="{" horiz-adv-x="806" 
d="M592 -274l2 -9q-148 0 -229 78q-80 77 -80 219v295q0 108 -52 160t-165 55v86q100 3 157 54q56 50 56 163v295q0 140 77 217q76 76 234 76h135v-88h-61q-71 0 -101 -43q-30 -44 -30 -129v-330q0 -93 -56 -161t-145 -89v-2q95 -21 147 -88q54 -69 54 -166v-333
q0 -86 30 -129t101 -43h61v-88h-135z" />
    <glyph glyph-name="bar" unicode="|" horiz-adv-x="450" 
d="M154 -442v1863h143v-1863h-143z" />
    <glyph glyph-name="braceright" unicode="}" horiz-adv-x="806" 
d="M80 -274l2 90h61q71 0 101 43t30 129v334q0 97 56 165q55 67 147 88v3q-91 18 -147 86t-56 165v330q0 85 -30 129q-30 43 -101 43h-61v88h135q158 0 234 -76q77 -77 77 -217v-295q0 -113 56 -163q55 -49 157 -52v-86q-115 -3 -166 -57t-51 -160v-295q0 -138 -80 -215
t-229 -77h-135z" />
    <glyph glyph-name="asciitilde" unicode="~" horiz-adv-x="1064" 
d="M762 481l-8 -8q-55 0 -119 31q-60 29 -135 92q-89 74 -127 96q-42 25 -74 25q-72 0 -102 -55q-31 -58 -43 -187h-142q15 152 49 227t93 119q58 43 151 43q58 0 117 -26q62 -27 145 -95q74 -68 121 -94q43 -24 76 -24q64 0 98 57q34 58 49 184h146q-21 -149 -56 -227
t-92 -117q-59 -41 -147 -41z" />
    <glyph glyph-name="uni00A0" unicode="&#xa0;" horiz-adv-x="512" 
 />
    <glyph glyph-name="exclamdown" unicode="&#xa1;" horiz-adv-x="681" 
d="M283 512h114l92 -922h-299zM340 961q69 0 119 -50q49 -49 49 -118q0 -70 -49 -119t-119 -49t-119 49t-49 119q0 69 49 118q50 50 119 50z" />
    <glyph glyph-name="cent" unicode="&#xa2;" horiz-adv-x="1024" 
d="M928 262l-2 -2q-41 -33 -113 -51q-77 -20 -143 -25v-186h-92v186q-489 18 -492 492q0 152 59 264q59 111 170 170q112 59 260 59h3v172h92v-176q126 -9 235 -30v-279h-71l-54 166q-52 34 -110 43v-756q143 0 258 31v-78zM379 680v-4q0 -166 47 -252q48 -89 147 -109v744
q-91 -18 -143 -119q-51 -99 -51 -260z" />
    <glyph glyph-name="sterling" unicode="&#xa3;" horiz-adv-x="1024" 
d="M961 223l-5 -227h-874v123l72 61q143 119 143 246q0 42 -16 92q-9 28 -37 98h-164v101h88q-68 151 -68 282q0 170 119 261q121 92 356 92q59 0 121 -6q47 -5 189 -35v-305h-86l-43 194q-86 53 -183 53q-178 0 -178 -249q0 -133 27 -283h250v-100h-238q15 -89 15 -154
q0 -83 -27 -141q-26 -57 -62 -105z" />
    <glyph glyph-name="currency" unicode="&#xa4;" horiz-adv-x="1024" 
d="M735 352l-4 -2q-92 -69 -221 -69q-121 0 -221 69l-105 -104l-100 102l102 103q-67 101 -67 223t67 223l-102 104l104 105l101 -107q104 70 223 70t223 -70l105 105l102 -100l-104 -107q69 -100 69 -221q0 -120 -69 -223l104 -103l-100 -102zM508 930v-2q-107 0 -180 -76
q-74 -77 -74 -180q0 -104 74 -178t178 -74q103 0 180 74q76 73 76 180q0 108 -74 182t-180 74z" />
    <glyph glyph-name="yen" unicode="&#xa5;" horiz-adv-x="1024" 
d="M2 1276v65h500v-65l-113 -27l207 -540l211 542l-111 25v65h326v-65l-86 -21l-256 -616h225v-102h-243v-138h243v-102h-243v-207l143 -24v-66h-576v66l144 24v207h-258v102h258v138h-258v102h233l-262 612z" />
    <glyph glyph-name="brokenbar" unicode="&#xa6;" horiz-adv-x="450" 
d="M154 801v620h143v-620h-143zM154 -442v622h143v-622h-143z" />
    <glyph glyph-name="section" unicode="&#xa7;" horiz-adv-x="1024" 
d="M854 43l-4 2q0 -142 -98 -221q-100 -80 -279 -80q-77 0 -168 18q-73 14 -137 35v262h65l39 -133q37 -37 97 -63q58 -25 110 -25q84 0 127 37t43 96q0 60 -43 109t-125 92l-96 49q-102 53 -156 103q-51 48 -77 104q-27 58 -27 133q0 100 59 174q61 77 160 103
q-95 53 -137 118q-43 67 -43 158q0 127 94 203q96 78 246 78q88 0 276 -29v-242h-65l-33 111q-30 30 -80 47q-52 18 -98 18q-70 0 -105 -30q-34 -30 -34 -82q0 -57 41 -101q37 -40 126 -79q159 -72 207 -101q52 -32 84 -69q38 -45 54 -86q18 -46 18 -111q0 -110 -61 -186
q-62 -77 -168 -111q93 -58 141 -133q47 -74 47 -168zM688 573h2q0 44 -18 74q-21 35 -56 60q-30 22 -133 69q-65 -9 -110 -51t-45 -88q0 -41 18 -76q17 -33 55 -63q37 -29 136 -82q64 12 108 59q43 46 43 98z" />
    <glyph glyph-name="dieresis" unicode="&#xa8;" horiz-adv-x="681" 
d="M510 1130v3q-47 0 -84 34t-37 86q0 50 37 84q38 35 84 35q51 0 84 -33q35 -35 35 -86q0 -48 -35 -86q-34 -37 -84 -37zM174 1133h-2q-48 0 -84 36q-37 37 -37 84t37 84t86 37q50 0 84 -37q35 -38 35 -82q0 -48 -35 -86q-33 -36 -84 -36z" />
    <glyph glyph-name="copyright" unicode="&#xa9;" horiz-adv-x="1529" 
d="M88 670l4 2q0 188 92 348t252 252t346 92t346 -92t252 -252q93 -162 93 -348q0 -182 -93 -344q-91 -158 -252 -254q-158 -94 -350 -94q-186 0 -346 92t-252 252t-92 346zM817 256h-6q-199 0 -313 111q-113 110 -113 299q0 209 111 317q112 109 317 109q115 0 270 -31
l4 -207h-69l-19 104q-46 27 -79 37q-44 13 -99 13q-129 0 -184 -76t-55 -266q0 -165 53 -248q52 -82 182 -82q124 0 195 59l22 119h70l-4 -219q-121 -39 -283 -39zM776 1280l-2 -4q-162 0 -301 -80q-140 -81 -219 -221q-80 -142 -80 -305t80 -305t219 -222t301 -80
q160 0 299 80q137 79 221 222q82 140 82 305q0 161 -80 303q-79 141 -217 223q-141 84 -303 84z" />
    <glyph glyph-name="ordfeminine" unicode="&#xaa;" horiz-adv-x="612" 
d="M324 1362q100 0 159 -47q58 -46 58 -129v-336l57 -14v-50h-215l-6 43q-29 -29 -70 -43t-88 -14q-188 0 -188 168q0 89 61 135t213 49l62 2v70q0 50 -27 74t-68 24q-36 0 -55 -8q-5 -2 -22 -9t-27 -11l-23 -78h-49v153q124 17 148 19q27 2 80 2zM365 1065l-52 -2
q-61 -3 -86 -31q-24 -27 -24 -88q0 -88 63 -88q46 0 99 27v182z" />
    <glyph glyph-name="guillemotleft" unicode="&#xab;" horiz-adv-x="1024" 
d="M106 496l330 356h101l-183 -389l183 -389h-101l-330 356v66zM516 496l330 356h100l-182 -389l182 -389h-100l-330 356v66z" />
    <glyph glyph-name="logicalnot" unicode="&#xac;" horiz-adv-x="1165" 
d="M1055 752v-549h-142v405h-811v144h953z" />
    <glyph glyph-name="uni00AD.001" unicode="&#xad;" horiz-adv-x="681" 
d="M76 395v174h530v-174h-530z" />
    <glyph glyph-name="registered" unicode="&#xae;" horiz-adv-x="1529" 
d="M1470 670l5 2q0 -182 -93 -344q-91 -158 -252 -254q-158 -94 -350 -94q-186 0 -346 92t-252 252t-92 346q0 188 92 348t252 252t346 92t346 -92t252 -252t92 -348zM971 279l-228 344h-49v-269l94 -16v-57h-346v57l76 16v660l-84 16v55h350q159 0 236 -57q80 -59 80 -166
q0 -78 -45 -135q-47 -59 -135 -86l206 -289l70 -16v-57h-225zM918 862l-3 -4q0 83 -43 117q-42 33 -161 33h-19v-312h23q104 0 153 37q50 38 50 129zM782 1278l-2 -4q-162 0 -301 -80q-140 -81 -219 -221q-80 -142 -80 -305q0 -164 80 -306q79 -140 219 -221
q139 -80 301 -80q160 0 299 80q138 80 221 221q82 140 82 306q0 163 -79 303t-218 223q-141 84 -303 84z" />
    <glyph glyph-name="overscore" unicode="&#xaf;" horiz-adv-x="1024" 
d="M1042 1393h-1058v147h1058v-147z" />
    <glyph glyph-name="degree" unicode="&#xb0;" horiz-adv-x="817" 
d="M98 1051l2 -4q0 82 41 153t115 115q73 43 156 43q82 0 153 -41q73 -42 115 -113q43 -73 43 -155q0 -83 -43 -156q-43 -72 -117 -113q-71 -39 -155 -39q-130 0 -220 90t-90 220zM410 1245v-2q-82 0 -136 -57q-55 -58 -55 -144q0 -83 55 -141q54 -57 136 -57q81 0 137 59
q55 58 55 141q0 86 -55 144q-54 57 -137 57z" />
    <glyph glyph-name="plusminus" unicode="&#xb1;" horiz-adv-x="1122" 
d="M633 608v-405h-144v405h-403v144h403v405h144v-405h405v-144h-405zM1038 141v-141h-952v141h952z" />
    <glyph glyph-name="twosuperior" unicode="&#xb2;" horiz-adv-x="612" 
d="M565 537l-508 2v112q77 83 136 142q58 57 98 110q39 50 61 109q21 56 21 133q0 62 -31 98q-30 35 -82 35q-51 0 -90 -31l-25 -117h-61v193q114 27 192 27q132 0 203 -56q72 -57 72 -153q0 -62 -23 -123q-20 -53 -71 -107q-58 -61 -156 -139l-111 -94h375v-141z" />
    <glyph glyph-name="threesuperior" unicode="&#xb3;" horiz-adv-x="612" 
d="M571 754h4q0 -110 -75 -170q-77 -62 -221 -62q-115 0 -224 25l-6 205h66l30 -131q47 -27 101 -27q150 0 147 166q0 69 -31 108q-30 38 -106 41l-66 4v84l64 4q54 3 78 37t24 105q0 132 -110 135q-35 0 -82 -29l-27 -119h-61v193q102 27 190 27q271 0 271 -199
q0 -78 -39 -129q-41 -53 -129 -68q104 -12 153 -61t49 -139z" />
    <glyph glyph-name="acute" unicode="&#xb4;" horiz-adv-x="681" 
d="M145 1118v33l166 272h285v-37l-365 -268h-86z" />
    <glyph glyph-name="mu1" unicode="&#xb5;" horiz-adv-x="1179" 
d="M768 92h2q-64 -64 -117 -88t-106 -24q-90 0 -146 53q0 -109 -12 -469h-283v45q25 272 25 493v748l-94 24v66h383v-651q0 -88 37 -131t116 -43q95 0 191 78v657l-86 24v66h375v-850l92 -24v-66h-359z" />
    <glyph glyph-name="paragraph" unicode="&#xb6;" horiz-adv-x="1105" 
d="M936 1245l-2 -1505h-139v1503h-136v-1503h-141v803q-193 6 -307 114q-115 109 -115 293q0 186 115 289q114 102 319 102h490v-73z" />
    <glyph glyph-name="middot" unicode="&#xb7;" horiz-adv-x="681" 
d="M342 512l-2 4q-69 0 -119 47q-49 46 -49 117q0 70 49 119t121 49q70 0 119 -49t49 -119t-49 -119t-119 -49z" />
    <glyph glyph-name="cedilla" unicode="&#xb8;" horiz-adv-x="681" 
d="M283 -422v-2q-87 0 -160 31v90q74 -19 135 -19q92 0 92 86q0 43 -31 68t-100 31l51 194h111l-23 -110q185 -27 185 -168q0 -94 -72 -148q-71 -53 -188 -53z" />
    <glyph glyph-name="onesuperior" unicode="&#xb9;" horiz-adv-x="612" 
d="M393 616l139 -14v-67h-456v67l139 14v578l-139 -47v65l227 136h90v-732z" />
    <glyph glyph-name="ordmasculine" unicode="&#xba;" horiz-adv-x="675" 
d="M618 1067l-4 -4q0 -146 -69 -221q-70 -76 -215 -76q-135 0 -205 76t-70 221q0 143 72 221q70 76 209 76q135 0 209 -74q73 -73 73 -219zM438 1063q0 223 -106 223q-54 0 -78 -53q-25 -55 -25 -170q0 -116 25 -174q24 -55 78 -55q53 0 80 55q26 53 26 174z" />
    <glyph glyph-name="guillemotright" unicode="&#xbb;" horiz-adv-x="1024" 
d="M918 430l-330 -356h-101l183 389l-183 389h101l330 -356v-66zM508 430l-330 -356h-100l182 389l-182 389h100l330 -356v-66z" />
    <glyph glyph-name="onequarter" unicode="&#xbc;" horiz-adv-x="1536" 
d="M387 0h-123l965 1341h121zM403 616l140 -14v-67h-457v67l139 14v578l-139 -47v65l227 136h90v-732zM1317 156v-158h-168v158h-326v98l361 553h133v-528h82v-123h-82zM1149 612h-2l-215 -333h217v333z" />
    <glyph glyph-name="onehalf" unicode="&#xbd;" horiz-adv-x="1536" 
d="M389 0h-123l965 1341h121zM395 616l140 -14v-67h-457v67l139 14v578l-139 -47v65l227 136h90v-732zM1456 2l-508 2v113q76 83 135 141t99 111q40 51 61 108q21 55 21 133q0 63 -31 99q-30 34 -82 34q-53 0 -90 -30l-25 -117h-61v192q114 27 192 27q133 0 203 -55
q72 -57 72 -154q0 -62 -23 -123q-19 -51 -71 -106q-58 -61 -156 -139l-111 -95h375v-141z" />
    <glyph glyph-name="threequarters" unicode="&#xbe;" horiz-adv-x="1536" 
d="M387 0h-123l965 1341h121zM623 754h4q0 -109 -76 -170q-77 -62 -221 -62q-115 0 -224 25l-6 205h66l31 -131q46 -27 100 -27q150 0 147 166q0 70 -30 108t-107 41l-65 4v84l63 4q54 3 78 37q25 36 25 105q0 132 -111 135q-35 0 -82 -29l-27 -119h-61v193q102 27 190 27
q271 0 271 -199q0 -78 -39 -129q-41 -53 -129 -68q104 -12 153 -61q50 -50 50 -139zM1341 156v-158h-167v158h-326v98l360 553h133v-528h82v-123h-82zM1174 612h-3l-215 -333h218v333z" />
    <glyph glyph-name="questiondown" unicode="&#xbf;" horiz-adv-x="1024" 
d="M582 961q69 0 116 -50t47 -118q0 -69 -47 -119q-46 -49 -116 -49t-119 49t-49 119q0 69 49 118q50 50 119 50zM535 543l102 -4l55 -314l-94 -24q-104 -27 -145 -92t-41 -172q0 -138 49 -199q50 -62 160 -62q82 0 147 41l43 195h88v-295q-165 -43 -324 -43
q-455 0 -452 354q0 142 78 246q75 100 221 141l86 25z" />
    <glyph glyph-name="Agrave" unicode="&#xc0;" horiz-adv-x="1478" 
d="M428 74v-74h-408v74l101 26l477 1252h289l475 -1252l102 -26v-74h-598v74l156 26l-127 346h-516l-123 -346zM641 1151l-221 -594h436zM815 1452l-364 268v37h284l166 -272v-33h-86z" />
    <glyph glyph-name="Aacute" unicode="&#xc1;" horiz-adv-x="1478" 
d="M428 74v-74h-408v74l101 26l477 1252h289l475 -1252l102 -26v-74h-598v74l156 26l-127 346h-516l-123 -346zM641 1151l-221 -594h436zM602 1452v33l166 272h285v-37l-365 -268h-86z" />
    <glyph glyph-name="Acircumflex" unicode="&#xc2;" horiz-adv-x="1478" 
d="M428 74v-74h-408v74l101 26l477 1252h289l475 -1252l102 -26v-74h-598v74l156 26l-127 346h-516l-123 -346zM641 1151l-221 -594h436zM416 1452v33l217 293h213l217 -293v-33h-76l-248 162l-247 -162h-76z" />
    <glyph glyph-name="Atilde" unicode="&#xc3;" horiz-adv-x="1478" 
d="M428 74v-74h-408v74l101 26l477 1252h289l475 -1252l102 -26v-74h-598v74l156 26l-127 346h-516l-123 -346zM641 1151l-221 -594h436zM854 1454v-4q-87 0 -197 88q-57 45 -92 45q-34 0 -47 -22q-13 -23 -22 -93h-105q9 153 66 222q55 67 151 67q48 0 88 -18
q39 -17 111 -68q60 -45 88 -45q19 0 31 6q11 6 18 23q8 19 19 86h104q-9 -152 -61 -219q-53 -68 -152 -68z" />
    <glyph glyph-name="Adieresis" unicode="&#xc4;" horiz-adv-x="1478" 
d="M428 74v-74h-408v74l101 26l477 1252h289l475 -1252l102 -26v-74h-598v74l156 26l-127 346h-516l-123 -346zM641 1151l-221 -594h436zM905 1464v2q-46 0 -84 35q-37 34 -37 86q0 50 37 84q38 35 84 35q51 0 84 -33q35 -35 35 -86q0 -48 -35 -86q-34 -37 -84 -37z
M569 1466h-2q-47 0 -84 37t-37 84t37 84t86 37q50 0 84 -37q35 -38 35 -82q0 -48 -35 -86q-34 -37 -84 -37z" />
    <glyph glyph-name="Aring" unicode="&#xc5;" horiz-adv-x="1478" 
d="M428 74v-74h-408v74l101 26l477 1252h289l475 -1252l102 -26v-74h-598v74l156 26l-127 346h-516l-123 -346zM641 1151l-221 -594h436zM731 1272l-2 -4q-86 0 -147 61q-62 62 -62 152q0 89 62 151t149 62q88 0 150 -62q61 -61 61 -149q0 -89 -61 -150t-150 -61zM729 1579
q-38 0 -70 -29q-30 -27 -30 -67t30 -70q31 -31 70 -31t70 31q30 30 30 70t-30 67q-32 29 -70 29z" />
    <glyph glyph-name="AE" unicode="&#xc6;" horiz-adv-x="2048" 
d="M827 1251l-143 19v71h1174v-342h-91l-32 218q-106 14 -265 14h-198v-492h282l31 148h88v-412h-88l-31 152h-282v-516h244q193 0 278 16l57 248h91l-19 -375h-1139v74l172 26v346h-460l-205 -346l151 -26v-74h-428v74l121 26zM956 557v680l-397 -680h397z" />
    <glyph glyph-name="Ccedilla" unicode="&#xc7;" horiz-adv-x="1478" 
d="M815 -20v-3q-338 0 -526 179q-189 180 -189 495q0 345 181 523t534 178q232 0 483 -68l7 -321h-91l-26 194q-134 90 -307 90q-231 0 -338 -143t-107 -449q0 -279 111 -426t325 -147q112 0 197 31q83 30 133 71l33 219h90l-6 -340q-90 -35 -234 -59t-270 -24zM739 -424v-2
q-86 0 -159 31v90q74 -19 135 -19q92 0 92 86q0 43 -31 68t-100 31l51 194h111l-23 -110q184 -27 184 -168q0 -95 -71 -148t-189 -53z" />
    <glyph glyph-name="Egrave" unicode="&#xc8;" horiz-adv-x="1363" 
d="M35 74l172 26v1141l-172 27v73h1143v-342h-93l-30 218q-106 14 -326 14h-207v-492h350l31 148h90v-412h-90l-31 152h-350v-516h252q253 0 338 16l57 248h93l-21 -375h-1206v74zM795 1452l-365 268v37h285l166 -272v-33h-86z" />
    <glyph glyph-name="Eacute" unicode="&#xc9;" horiz-adv-x="1363" 
d="M35 74l172 26v1141l-172 27v73h1143v-342h-93l-30 218q-106 14 -326 14h-207v-492h350l31 148h90v-412h-90l-31 152h-350v-516h252q253 0 338 16l57 248h93l-21 -375h-1206v74zM539 1452v33l166 272h284v-37l-364 -268h-86z" />
    <glyph glyph-name="Ecircumflex" unicode="&#xca;" horiz-adv-x="1363" 
d="M35 74l172 26v1141l-172 27v73h1143v-342h-93l-30 218q-106 14 -326 14h-207v-492h350l31 148h90v-412h-90l-31 152h-350v-516h252q253 0 338 16l57 248h93l-21 -375h-1206v74zM358 1452v33l217 293h213l218 -293v-33h-76l-248 162l-248 -162h-76z" />
    <glyph glyph-name="Edieresis" unicode="&#xcb;" horiz-adv-x="1363" 
d="M35 74l172 26v1141l-172 27v73h1143v-342h-93l-30 218q-106 14 -326 14h-207v-492h350l31 148h90v-412h-90l-31 152h-350v-516h252q253 0 338 16l57 248h93l-21 -375h-1206v74zM852 1464v2q-46 0 -84 35q-37 34 -37 86q0 50 37 84q38 35 84 35q51 0 84 -33q35 -35 35 -86
q0 -48 -35 -86q-34 -37 -84 -37zM516 1466h-2q-47 0 -84 37t-37 84t37 84t86 37q50 0 84 -37q35 -38 35 -82q0 -48 -35 -86q-34 -37 -84 -37z" />
    <glyph glyph-name="Igrave" unicode="&#xcc;" horiz-adv-x="796" 
d="M555 100l172 -26v-74h-657v74l172 26v1141l-172 27v73h657v-73l-172 -27v-1141zM504 1452l-365 268v37h285l166 -272v-33h-86z" />
    <glyph glyph-name="Iacute" unicode="&#xcd;" horiz-adv-x="796" 
d="M555 100l172 -26v-74h-657v74l172 26v1141l-172 27v73h657v-73l-172 -27v-1141zM238 1452v33l165 272h285v-37l-364 -268h-86z" />
    <glyph glyph-name="Icircumflex" unicode="&#xce;" horiz-adv-x="796" 
d="M555 100l172 -26v-74h-657v74l172 26v1141l-172 27v73h657v-73l-172 -27v-1141zM72 1452v33l217 293h213l217 -293v-33h-76l-248 162l-248 -162h-75z" />
    <glyph glyph-name="Idieresis" unicode="&#xcf;" horiz-adv-x="796" 
d="M555 100l172 -26v-74h-657v74l172 26v1141l-172 27v73h657v-73l-172 -27v-1141zM565 1464v2q-46 0 -84 35q-37 34 -37 86q0 50 37 84q38 35 84 35q51 0 84 -33q35 -35 35 -86q0 -48 -35 -86q-34 -37 -84 -37zM229 1466h-2q-47 0 -84 37t-37 84t37 84t86 37q50 0 84 -37
q35 -38 35 -82q0 -48 -35 -86q-34 -37 -84 -37z" />
    <glyph glyph-name="Eth" unicode="&#xd0;" horiz-adv-x="1478" 
d="M694 1341l4 -4q361 0 533 -163t172 -498q0 -343 -166 -512q-165 -168 -500 -168l-448 4h-209v74l149 26v508h-178v123h178v510l-172 27v73h637zM1073 666h2q0 294 -106 426q-108 135 -344 135h-74v-500h256v-123h-256v-493q95 -9 172 -9q128 0 205 56q75 54 110 176
t35 332z" />
    <glyph glyph-name="Ntilde" unicode="&#xd1;" horiz-adv-x="1478" 
d="M1155 1241l-180 27v73h477v-73l-172 -27v-1241h-117l-827 1077v-977l180 -26v-74h-477v74l172 26v1141l-172 27v73h459l657 -858v758zM874 1454v-4q-86 0 -196 88q-57 45 -92 45q-34 0 -47 -22q-14 -25 -23 -93h-104q9 154 65 222q55 67 152 67q47 0 88 -18
q36 -16 110 -68q60 -45 88 -45q19 0 31 6t19 23q6 15 18 86h104q-9 -152 -61 -219q-53 -68 -152 -68z" />
    <glyph glyph-name="Ograve" unicode="&#xd2;" horiz-adv-x="1591" 
d="M432 672v-2q0 -319 86 -455q86 -135 277 -135q188 0 276 137t88 455q0 317 -88 448q-89 133 -276 133q-191 0 -277 -133t-86 -448zM100 670v-4q0 684 697 684q345 0 520 -172q176 -173 176 -510q0 -341 -178 -516t-518 -175q-338 0 -518 177q-179 176 -179 516zM856 1446
l-364 268v37h284l166 -272v-33h-86z" />
    <glyph glyph-name="Oacute" unicode="&#xd3;" horiz-adv-x="1591" 
d="M432 672v-2q0 -319 86 -455q86 -135 277 -135q188 0 276 137t88 455q0 317 -88 448q-89 133 -276 133q-191 0 -277 -133t-86 -448zM100 670v-4q0 684 697 684q345 0 520 -172q176 -173 176 -510q0 -341 -178 -516t-518 -175q-338 0 -518 177q-179 176 -179 516zM696 1446
v33l166 272h285v-37l-365 -268h-86z" />
    <glyph glyph-name="Ocircumflex" unicode="&#xd4;" horiz-adv-x="1591" 
d="M432 672v-2q0 -319 86 -455q86 -135 277 -135q188 0 276 137t88 455q0 317 -88 448q-89 133 -276 133q-191 0 -277 -133t-86 -448zM100 670v-4q0 684 697 684q345 0 520 -172q176 -173 176 -510q0 -341 -178 -516t-518 -175q-338 0 -518 177q-179 176 -179 516zM473 1446
v33l217 293h213l217 -293v-33h-76l-247 162l-248 -162h-76z" />
    <glyph glyph-name="Otilde" unicode="&#xd5;" horiz-adv-x="1591" 
d="M432 672v-2q0 -319 86 -455q86 -135 277 -135q188 0 276 137t88 455q0 317 -88 448q-89 133 -276 133q-191 0 -277 -133t-86 -448zM100 670v-4q0 684 697 684q345 0 520 -172q176 -173 176 -510q0 -341 -178 -516t-518 -175q-338 0 -518 177q-179 176 -179 516zM918 1448
v-4q-87 0 -197 88q-57 45 -92 45q-34 0 -47 -23q-14 -25 -23 -92h-104q9 153 65 221t152 68q48 0 88 -18q36 -16 110 -68q60 -45 88 -45q19 0 31 6t19 23q6 15 18 86h104q-9 -152 -61 -219q-53 -68 -151 -68z" />
    <glyph glyph-name="Odieresis" unicode="&#xd6;" horiz-adv-x="1591" 
d="M432 672v-2q0 -319 86 -455q86 -135 277 -135q188 0 276 137t88 455q0 317 -88 448q-89 133 -276 133q-191 0 -277 -133t-86 -448zM100 670v-4q0 684 697 684q345 0 520 -172q176 -173 176 -510q0 -341 -178 -516t-518 -175q-338 0 -518 177q-179 176 -179 516zM971 1458
v2q-46 0 -84 35q-37 34 -37 86q0 50 37 84q38 35 84 35q51 0 84 -33q35 -35 35 -86q0 -48 -35 -86q-34 -37 -84 -37zM635 1460h-2q-47 0 -84 37t-37 84t37 84t86 37q50 0 84 -37q35 -38 35 -82q0 -48 -35 -86q-34 -37 -84 -37z" />
    <glyph glyph-name="multiply" unicode="&#xd7;" horiz-adv-x="1165" 
d="M578 578l-324 -324l-102 102l323 326l-323 322l104 104l322 -324l325 324l103 -102l-324 -324l324 -326l-103 -102z" />
    <glyph glyph-name="Oslash" unicode="&#xd8;" horiz-adv-x="1591" 
d="M291 143v-2q-191 176 -191 529q0 684 697 684q252 0 415 -94l109 129h145l-161 -197q188 -173 188 -522q0 -341 -178 -516q-177 -174 -518 -174q-245 0 -414 96l-107 -131h-149zM432 670l-2 -2q0 -196 31 -320l620 752q-86 151 -286 151q-191 0 -277 -133t-86 -448z
M1159 668q0 190 -31 311l-618 -752q86 -151 285 -151q188 0 276 137t88 455z" />
    <glyph glyph-name="Ugrave" unicode="&#xd9;" horiz-adv-x="1478" 
d="M838 123q149 0 233 84q82 82 82 246v788l-178 27v73h455v-73l-152 -27v-780q0 -232 -135 -355q-134 -122 -383 -122q-269 0 -412 125t-143 362v772l-152 27v73h639v-73l-172 -27v-786q0 -162 80 -248t238 -86zM850 1452l-365 268v37h285l166 -272v-33h-86z" />
    <glyph glyph-name="Uacute" unicode="&#xda;" horiz-adv-x="1478" 
d="M838 123q149 0 233 84q82 82 82 246v788l-178 27v73h455v-73l-152 -27v-780q0 -232 -135 -355q-134 -122 -383 -122q-269 0 -412 125t-143 362v772l-152 27v73h639v-73l-172 -27v-786q0 -162 80 -248t238 -86zM707 1452v33l165 272h285v-37l-364 -268h-86z" />
    <glyph glyph-name="Ucircumflex" unicode="&#xdb;" horiz-adv-x="1478" 
d="M838 123q149 0 233 84q82 82 82 246v788l-178 27v73h455v-73l-152 -27v-780q0 -232 -135 -355q-134 -122 -383 -122q-269 0 -412 125t-143 362v772l-152 27v73h639v-73l-172 -27v-786q0 -162 80 -248t238 -86zM479 1452v33l217 293h213l217 -293v-33h-75l-248 162
l-248 -162h-76z" />
    <glyph glyph-name="Udieresis" unicode="&#xdc;" horiz-adv-x="1478" 
d="M838 123q149 0 233 84q82 82 82 246v788l-178 27v73h455v-73l-152 -27v-780q0 -232 -135 -355q-134 -122 -383 -122q-269 0 -412 125t-143 362v772l-152 27v73h639v-73l-172 -27v-786q0 -162 80 -248t238 -86zM965 1464v2q-46 0 -84 35q-37 34 -37 86q0 50 37 84
q38 35 84 35q51 0 84 -33q34 -34 34 -86q0 -49 -34 -86t-84 -37zM629 1466h-2q-47 0 -84 37t-37 84t37 84t86 37q50 0 84 -37q35 -38 35 -82q0 -48 -35 -86q-34 -37 -84 -37z" />
    <glyph glyph-name="Yacute" unicode="&#xdd;" horiz-adv-x="1478" 
d="M911 528v-428l213 -26v-74h-741v74l213 26v422l-410 719l-149 27v73h688v-73l-178 -27l305 -561l297 561l-166 27v73h457v-73l-142 -27zM643 1452v33l166 272h285v-37l-365 -268h-86z" />
    <glyph glyph-name="Thorn" unicode="&#xde;" horiz-adv-x="1249" 
d="M530 100l172 -26v-74h-659v74l172 26v1141l-172 27v73h659v-73l-172 -27v-158h56q286 0 426 -94q141 -95 141 -301q0 -420 -489 -420h-134v-168zM831 686l-2 -2q0 158 -59 223q-58 64 -209 64h-31v-594h35q140 0 203 69t63 240z" />
    <glyph glyph-name="germandbls" unicode="&#xdf;" horiz-adv-x="1138" 
d="M537 784l-2 -6q0 92 45 160q46 70 125 104q-6 149 -41 224q-34 73 -111 73q-79 0 -109 -79q-30 -80 -30 -308v-952h-371v66l82 24v862q0 251 108 371q107 119 326 119q426 0 438 -457q-101 0 -153 -37q-53 -38 -53 -106q0 -55 28 -109q26 -51 99 -127q91 -91 116 -131
q30 -48 43 -92q15 -50 15 -109q0 -136 -93 -217q-92 -80 -254 -80q-61 0 -141 13q-73 12 -102 28v248h65l39 -141q44 -53 111 -53h10q50 3 80 43q31 42 31 98q0 57 -31 111q-27 47 -105 122q-40 37 -86 99q-43 57 -61 117q-18 59 -18 122z" />
    <glyph glyph-name="agrave" unicode="&#xe0;" horiz-adv-x="1024" 
d="M547 961v-5q352 0 352 -260v-610l94 -25v-65h-346l-22 72q-79 -54 -140 -72q-65 -19 -127 -19q-290 0 -290 281q0 108 43 172t122 94t256 33l123 4v137q0 170 -139 170q-82 0 -188 -53l-37 -117h-68v228q167 23 221 28q82 7 146 7zM610 467l-88 -6q-96 -3 -133 -49
t-37 -152q0 -83 31 -125q29 -39 80 -39q66 0 147 35v336zM618 1110l-364 268v37h285l166 -272v-33h-87z" />
    <glyph glyph-name="aacute" unicode="&#xe1;" horiz-adv-x="1024" 
d="M547 961v-5q352 0 352 -260v-610l94 -25v-65h-346l-22 72q-79 -54 -140 -72q-65 -19 -127 -19q-290 0 -290 281q0 108 43 172t122 94t256 33l123 4v137q0 170 -139 170q-82 0 -188 -53l-37 -117h-68v228q167 23 221 28q82 7 146 7zM610 467l-88 -6q-96 -3 -133 -49
t-37 -152q0 -83 31 -125q29 -39 80 -39q66 0 147 35v336zM358 1110v33l166 272h285v-37l-365 -268h-86z" />
    <glyph glyph-name="acircumflex" unicode="&#xe2;" horiz-adv-x="1024" 
d="M547 961v-5q352 0 352 -260v-610l94 -25v-65h-346l-22 72q-79 -54 -140 -72q-65 -19 -127 -19q-290 0 -290 281q0 108 43 172t122 94t256 33l123 4v137q0 170 -139 170q-82 0 -188 -53l-37 -117h-68v228q167 23 221 28q82 7 146 7zM610 467l-88 -6q-96 -3 -133 -49
t-37 -152q0 -83 31 -125q29 -39 80 -39q66 0 147 35v336zM182 1110v33l217 293h213l217 -293v-33h-75l-248 162l-248 -162h-76z" />
    <glyph glyph-name="atilde" unicode="&#xe3;" horiz-adv-x="1024" 
d="M547 961v-5q352 0 352 -260v-610l94 -25v-65h-346l-22 72q-79 -54 -140 -72q-65 -19 -127 -19q-290 0 -290 281q0 108 43 172t122 94t256 33l123 4v137q0 170 -139 170q-82 0 -188 -53l-37 -117h-68v228q167 23 221 28q82 7 146 7zM610 467l-88 -6q-96 -3 -133 -49
t-37 -152q0 -83 31 -125q29 -39 80 -39q66 0 147 35v336zM627 1114v-4q-87 0 -197 88q-57 45 -92 45q-34 0 -47 -22q-14 -25 -23 -93h-104q9 154 65 222q55 67 152 67q47 0 88 -18q39 -17 111 -68q60 -45 88 -45q18 0 30 6t19 23q6 15 18 86h105q-9 -151 -62 -219t-151 -68z
" />
    <glyph glyph-name="adieresis" unicode="&#xe4;" horiz-adv-x="1024" 
d="M547 961v-5q352 0 352 -260v-610l94 -25v-65h-346l-22 72q-79 -54 -140 -72q-65 -19 -127 -19q-290 0 -290 281q0 108 43 172t122 94t256 33l123 4v137q0 170 -139 170q-82 0 -188 -53l-37 -117h-68v228q167 23 221 28q82 7 146 7zM610 467l-88 -6q-96 -3 -133 -49
t-37 -152q0 -83 31 -125q29 -39 80 -39q66 0 147 35v336zM678 1122v2q-46 0 -84 35q-37 34 -37 86q0 50 37 84q38 35 84 35q51 0 84 -33q35 -35 35 -86q0 -48 -35 -86q-34 -37 -84 -37zM342 1124h-2q-47 0 -84 37t-37 84t37 84t86 37q50 0 84 -37q35 -38 35 -82
q0 -48 -35 -86q-34 -37 -84 -37z" />
    <glyph glyph-name="aring" unicode="&#xe5;" horiz-adv-x="1024" 
d="M547 961v-5q352 0 352 -260v-610l94 -25v-65h-346l-22 72q-79 -54 -140 -72q-65 -19 -127 -19q-290 0 -290 281q0 108 43 172t122 94t256 33l123 4v137q0 170 -139 170q-82 0 -188 -53l-37 -117h-68v228q167 23 221 28q82 7 146 7zM610 467l-88 -6q-96 -3 -133 -49
t-37 -152q0 -83 31 -125q29 -39 80 -39q66 0 147 35v336zM514 1051l-2 -4q-86 0 -147 61q-62 62 -62 152q0 89 62 151t149 62q88 0 150 -62q61 -61 61 -149q0 -89 -61 -150t-150 -61zM512 1358q-38 0 -70 -29q-30 -27 -30 -67t30 -70q31 -31 70 -31t70 31q30 30 30 70
t-30 67q-32 29 -70 29z" />
    <glyph glyph-name="ae" unicode="&#xe6;" horiz-adv-x="1478" 
d="M987 965l-8 -2q205 0 309 -107q105 -108 105 -313v-82h-523v-53q3 -115 31 -179q26 -58 86 -94q56 -33 154 -33q31 0 110 11q65 9 105 18v-76q-52 -34 -131 -55q-76 -20 -160 -20q-135 0 -221 30q-83 29 -137 92q-155 -125 -357 -125q-143 0 -217 68t-74 213q0 74 25 129
q23 51 72 90q46 37 123 55q86 20 221 23l98 4v135q0 89 -33 131q-34 43 -104 43q-94 0 -180 -51l-39 -119h-66v228q178 38 338 35q158 0 231 -70q92 74 242 74zM459 98l-4 -6q53 0 102 19q43 17 92 45q-29 37 -43 104q-16 75 -16 154v51l-74 -2q-65 -3 -104 -23
q-35 -18 -50 -61q-16 -46 -16 -117q0 -86 33 -125t80 -39zM991 854v-4q-63 0 -94 -66q-31 -67 -31 -227h230q0 167 -25 234q-23 63 -80 63z" />
    <glyph glyph-name="ccedilla" unicode="&#xe7;" horiz-adv-x="907" 
d="M858 57l2 -6q-46 -37 -125 -55q-84 -19 -164 -19q-250 0 -374 121q-123 120 -123 369q0 156 55 266q56 112 160 170q108 60 243 60q137 0 306 -35v-279h-72l-43 166q-40 28 -68 35q-38 10 -86 10q-56 0 -106 -47q-49 -46 -76 -131q-27 -86 -27 -205q0 -201 62 -287
t201 -86q129 0 235 29v-76zM442 -428v-2q-86 0 -159 31v90q74 -19 135 -19q92 0 92 86q0 43 -31 68t-100 31l51 194h111l-23 -110q184 -27 184 -168q0 -95 -71 -148t-189 -53z" />
    <glyph glyph-name="egrave" unicode="&#xe8;" horiz-adv-x="907" 
d="M494 963h4q191 0 276 -101q86 -103 86 -315v-82h-493v-16q0 -151 24 -216q23 -62 78 -98q50 -33 147 -33q79 0 224 29v-76q-54 -34 -144 -55q-84 -20 -172 -20q-231 0 -342 120q-110 119 -110 375q0 248 104 367q106 121 318 121zM487 862h2q-58 0 -88 -65t-30 -228h217
q0 140 -8 189q-9 55 -31 80q-21 24 -62 24zM578 1118l-365 268v37h285l166 -272v-33h-86z" />
    <glyph glyph-name="eacute" unicode="&#xe9;" horiz-adv-x="907" 
d="M494 963h4q191 0 276 -101q86 -103 86 -315v-82h-493v-16q0 -151 24 -216q23 -62 78 -98q50 -33 147 -33q79 0 224 29v-76q-54 -34 -144 -55q-84 -20 -172 -20q-231 0 -342 120q-110 119 -110 375q0 248 104 367q106 121 318 121zM487 862h2q-58 0 -88 -65t-30 -228h217
q0 140 -8 189q-9 55 -31 80q-21 24 -62 24zM365 1118v33l165 272h285v-37l-364 -268h-86z" />
    <glyph glyph-name="ecircumflex" unicode="&#xea;" horiz-adv-x="907" 
d="M494 963h4q191 0 276 -101q86 -103 86 -315v-82h-493v-16q0 -151 24 -216q23 -62 78 -98q50 -33 147 -33q79 0 224 29v-76q-54 -34 -144 -55q-84 -20 -172 -20q-231 0 -342 120q-110 119 -110 375q0 248 104 367q106 121 318 121zM487 862h2q-58 0 -88 -65t-30 -228h217
q0 140 -8 189q-9 55 -31 80q-21 24 -62 24zM160 1118v33l217 293h213l217 -293v-33h-76l-248 162l-247 -162h-76z" />
    <glyph glyph-name="edieresis" unicode="&#xeb;" horiz-adv-x="907" 
d="M494 963h4q191 0 276 -101q86 -103 86 -315v-82h-493v-16q0 -151 24 -216q23 -62 78 -98q50 -33 147 -33q79 0 224 29v-76q-54 -34 -144 -55q-84 -20 -172 -20q-231 0 -342 120q-110 119 -110 375q0 248 104 367q106 121 318 121zM487 862h2q-58 0 -88 -65t-30 -228h217
q0 140 -8 189q-9 55 -31 80q-21 24 -62 24zM647 1130v3q-47 0 -84 34t-37 86q0 50 37 84q38 35 84 35q51 0 84 -33q35 -35 35 -86q0 -48 -35 -86q-34 -37 -84 -37zM311 1133h-2q-48 0 -84 36q-37 37 -37 84t37 84t86 37q50 0 84 -37q35 -38 35 -82q0 -48 -35 -86
q-33 -36 -84 -36z" />
    <glyph glyph-name="igrave" unicode="&#xec;" horiz-adv-x="567" 
d="M436 90l103 -24v-66h-494v66l102 24v760l-96 24v66h385v-850zM352 1118l-364 268v37h284l166 -272v-33h-86z" />
    <glyph glyph-name="iacute" unicode="&#xed;" horiz-adv-x="567" 
d="M436 90l103 -24v-66h-494v66l102 24v760l-96 24v66h385v-850zM143 1118v33l166 272h285v-37l-365 -268h-86z" />
    <glyph glyph-name="icircumflex" unicode="&#xee;" horiz-adv-x="567" 
d="M436 90l103 -24v-66h-494v66l102 24v760l-96 24v66h385v-850zM-35 1118v33l217 293h213l217 -293v-33h-75l-248 162l-248 -162h-76z" />
    <glyph glyph-name="idieresis" unicode="&#xef;" horiz-adv-x="567" 
d="M436 90l103 -24v-66h-494v66l102 24v760l-96 24v66h385v-850zM461 1130v3q-47 0 -84 34t-37 86q0 50 37 84q38 35 84 35q51 0 84 -33q35 -35 35 -86q0 -48 -35 -86q-34 -37 -84 -37zM125 1133h-2q-48 0 -84 36q-37 37 -37 84t37 84t86 37q50 0 84 -37q35 -38 35 -82
q0 -48 -35 -86q-33 -36 -84 -36z" />
    <glyph glyph-name="eth" unicode="&#xf0;" horiz-adv-x="1024" 
d="M229 1116l174 101q-91 67 -184 96v108q175 -41 318 -129l284 164v-123l-190 -110q311 -258 317 -746v-35q0 -465 -440 -465q-213 0 -320 119q-106 118 -106 346q0 225 108 342t326 117q69 0 102 -8q-35 140 -135 246l-254 -148v125zM655 444l-2 -4q0 188 -35 275
q-35 86 -110 86t-105 -82q-30 -83 -30 -277q0 -203 33 -282q34 -82 104 -82q76 0 111 90q34 87 34 276z" />
    <glyph glyph-name="ntilde" unicode="&#xf1;" horiz-adv-x="1138" 
d="M434 858l70 37q141 72 252 72q260 0 260 -277v-598l94 -24v-66h-467v66l84 24v559q0 83 -37 129q-38 47 -100 47q-79 0 -154 -34v-703l86 -24v-66h-467v66l92 24v760l-92 24v66h365zM709 1124v-4q-87 0 -197 88q-57 45 -92 45q-34 0 -47 -22q-14 -25 -23 -92h-104
q9 153 65 221q55 67 152 67q47 0 88 -18q39 -17 111 -68q60 -45 88 -45q16 0 30 7q13 6 19 22q6 15 18 86h105q-9 -151 -62 -219t-151 -68z" />
    <glyph glyph-name="ograve" unicode="&#xf2;" horiz-adv-x="1024" 
d="M514 965q224 0 328 -125t104 -365q0 -247 -105 -371t-335 -124q-428 0 -428 495q0 244 104.5 367t331.5 123zM653 475q0 50 -0.5 75t-2 69t-5.5 67.5t-10.5 57t-17 51t-25.5 36t-36 26t-48 7.5q-20 0 -36.5 -5t-29.5 -16.5t-23 -24t-17.5 -33.5t-12.5 -39t-8.5 -47
t-5.5 -50t-3 -56t-1 -57.5v-60.5q0 -54 0.5 -87.5t3.5 -80t8 -75t15 -61t24.5 -50t36 -29.5t49.5 -12q27 0 48 8t36 26.5t25.5 37t17 52.5t10.5 58t5.5 68.5t2 69.5t0.5 75zM592 1118l-365 268v37h285l166 -272v-33h-86z" />
    <glyph glyph-name="oacute" unicode="&#xf3;" horiz-adv-x="1024" 
d="M514 965q224 0 328 -125t104 -365q0 -247 -105 -371t-335 -124q-428 0 -428 495q0 244 104.5 367t331.5 123zM653 475q0 50 -0.5 75t-2 69t-5.5 67.5t-10.5 57t-17 51t-25.5 36t-36 26t-48 7.5q-20 0 -36.5 -5t-29.5 -16.5t-23 -24t-17.5 -33.5t-12.5 -39t-8.5 -47
t-5.5 -50t-3 -56t-1 -57.5v-60.5q0 -54 0.5 -87.5t3.5 -80t8 -75t15 -61t24.5 -50t36 -29.5t49.5 -12q27 0 48 8t36 26.5t25.5 37t17 52.5t10.5 58t5.5 68.5t2 69.5t0.5 75zM375 1118v33l166 272h284v-37l-364 -268h-86z" />
    <glyph glyph-name="ocircumflex" unicode="&#xf4;" horiz-adv-x="1024" 
d="M514 965q224 0 328 -125t104 -365q0 -247 -105 -371t-335 -124q-428 0 -428 495q0 244 104.5 367t331.5 123zM653 475q0 50 -0.5 75t-2 69t-5.5 67.5t-10.5 57t-17 51t-25.5 36t-36 26t-48 7.5q-20 0 -36.5 -5t-29.5 -16.5t-23 -24t-17.5 -33.5t-12.5 -39t-8.5 -47
t-5.5 -50t-3 -56t-1 -57.5v-60.5q0 -54 0.5 -87.5t3.5 -80t8 -75t15 -61t24.5 -50t36 -29.5t49.5 -12q27 0 48 8t36 26.5t25.5 37t17 52.5t10.5 58t5.5 68.5t2 69.5t0.5 75zM186 1118v33l217 293h213l218 -293v-33h-76l-248 162l-248 -162h-76z" />
    <glyph glyph-name="otilde" unicode="&#xf5;" horiz-adv-x="1024" 
d="M514 965q224 0 328 -125t104 -365q0 -247 -105 -371t-335 -124q-428 0 -428 495q0 244 104.5 367t331.5 123zM653 475q0 50 -0.5 75t-2 69t-5.5 67.5t-10.5 57t-17 51t-25.5 36t-36 26t-48 7.5q-20 0 -36.5 -5t-29.5 -16.5t-23 -24t-17.5 -33.5t-12.5 -39t-8.5 -47
t-5.5 -50t-3 -56t-1 -57.5v-60.5q0 -54 0.5 -87.5t3.5 -80t8 -75t15 -61t24.5 -50t36 -29.5t49.5 -12q27 0 48 8t36 26.5t25.5 37t17 52.5t10.5 58t5.5 68.5t2 69.5t0.5 75zM629 1122v-4q-87 0 -197 88q-57 45 -92 45q-34 0 -47 -22q-14 -25 -23 -92h-104q9 153 65 221
q55 67 152 67q47 0 88 -18q39 -17 111 -68q60 -45 88 -45q18 0 30 6t19 23q6 15 18 86h105q-9 -151 -62 -219t-151 -68z" />
    <glyph glyph-name="odieresis" unicode="&#xf6;" horiz-adv-x="1024" 
d="M514 965q224 0 328 -125t104 -365q0 -247 -105 -371t-335 -124q-428 0 -428 495q0 244 104.5 367t331.5 123zM653 475q0 50 -0.5 75t-2 69t-5.5 67.5t-10.5 57t-17 51t-25.5 36t-36 26t-48 7.5q-20 0 -36.5 -5t-29.5 -16.5t-23 -24t-17.5 -33.5t-12.5 -39t-8.5 -47
t-5.5 -50t-3 -56t-1 -57.5v-60.5q0 -54 0.5 -87.5t3.5 -80t8 -75t15 -61t24.5 -50t36 -29.5t49.5 -12q27 0 48 8t36 26.5t25.5 37t17 52.5t10.5 58t5.5 68.5t2 69.5t0.5 75zM680 1130v3q-47 0 -84 34t-37 86q0 50 37 84q38 35 84 35q51 0 84 -33q35 -35 35 -86
q0 -48 -35 -86q-34 -37 -84 -37zM344 1133h-2q-48 0 -84 36q-37 37 -37 84t37 84t86 37q50 0 84 -37q35 -38 35 -82q0 -48 -35 -86q-33 -36 -84 -36z" />
    <glyph glyph-name="divide" unicode="&#xf7;" horiz-adv-x="1122" 
d="M1038 752v-144h-952v144h952zM561 182l-4 -4q-55 0 -94 39t-39 98q0 54 41 95q39 39 96 39q55 0 94 -39t39 -95q0 -55 -39 -94t-94 -39zM557 905h-4q-55 0 -94 39t-39 94q0 56 41 97t96 41t94 -39t39 -99q0 -55 -39 -94t-94 -39z" />
    <glyph glyph-name="oslash" unicode="&#xf8;" horiz-adv-x="1024" 
d="M193 94q-115 124 -115 381q0 249 108 369q109 121 330 121q143 0 240 -54l73 111h125l-118 -172q112 -121 112 -375q0 -255 -108 -375t-332 -120q-142 0 -234 51l-75 -115h-129zM371 475l2 -63l2 -56l260 379q-15 66 -45 96q-31 31 -82 31q-77 0 -107 -80t-30 -307z
M655 473v109l-262 -383q14 -56 43 -88q28 -31 74 -31q78 0 113 86q32 79 32 307z" />
    <glyph glyph-name="ugrave" unicode="&#xf9;" horiz-adv-x="1138" 
d="M705 82l-72 -37q-141 -72 -252 -72q-260 0 -260 277v598l-94 24v66h383v-649q0 -84 36 -129q38 -47 103 -47q78 0 153 34v703l-86 24v66h375v-850l92 -24v-66h-364zM627 1116l-365 268v37h285l166 -272v-33h-86z" />
    <glyph glyph-name="uacute" unicode="&#xfa;" horiz-adv-x="1138" 
d="M705 82l-72 -37q-141 -72 -252 -72q-260 0 -260 277v598l-94 24v66h383v-649q0 -84 36 -129q38 -47 103 -47q78 0 153 34v703l-86 24v66h375v-850l92 -24v-66h-364zM412 1116v33l166 272h284v-37l-364 -268h-86z" />
    <glyph glyph-name="ucircumflex" unicode="&#xfb;" horiz-adv-x="1138" 
d="M705 82l-72 -37q-141 -72 -252 -72q-260 0 -260 277v598l-94 24v66h383v-649q0 -84 36 -129q38 -47 103 -47q78 0 153 34v703l-86 24v66h375v-850l92 -24v-66h-364zM236 1116v33l217 293h213l217 -293v-33h-76l-248 162l-248 -162h-75z" />
    <glyph glyph-name="udieresis" unicode="&#xfc;" horiz-adv-x="1138" 
d="M705 82l-72 -37q-141 -72 -252 -72q-260 0 -260 277v598l-94 24v66h383v-649q0 -84 36 -129q38 -47 103 -47q78 0 153 34v703l-86 24v66h375v-850l92 -24v-66h-364zM731 1128v2q-46 0 -84 35q-37 34 -37 86q0 50 37 84q38 35 84 35q51 0 84 -33q35 -35 35 -86
q0 -48 -35 -86q-34 -37 -84 -37zM395 1130h-2q-47 0 -84 37t-37 84t37 84t86 37q50 0 84 -37q35 -38 35 -82q0 -48 -35 -86q-34 -37 -84 -37z" />
    <glyph glyph-name="yacute" unicode="&#xfd;" horiz-adv-x="1024" 
d="M463 -29l-375 877l-65 24v66h481v-66l-113 -26l221 -520l197 522l-111 24v66h308v-66l-68 -20l-371 -913q-66 -168 -112 -236q-50 -75 -107 -111q-56 -36 -135 -36q-83 0 -166 18v244h62l43 -127q30 -23 73 -23q39 0 68 19q30 20 53 53q27 39 49 84q36 75 68 147z
M414 1116v33l166 272h284v-37l-364 -268h-86z" />
    <glyph glyph-name="thorn" unicode="&#xfe;" horiz-adv-x="1138" 
d="M129 1333l-115 23v65h404v-346q0 -109 -8 -182q57 40 120 55q70 17 127 17q210 0 314 -119t104 -369q0 -240 -110 -368q-111 -129 -322 -129q-127 0 -231 26q6 -64 6 -147v-205l137 -25v-65h-528v65l102 25v1679zM782 469h-2q0 184 -49 285q-49 100 -137 100
q-91 0 -178 -43v-709q79 -20 172 -20q89 0 141 98q53 100 53 289z" />
    <glyph glyph-name="ydieresis" unicode="&#xff;" horiz-adv-x="1024" 
d="M463 -29l-375 877l-65 24v66h481v-66l-113 -26l221 -520l197 522l-111 24v66h308v-66l-68 -20l-371 -913q-66 -168 -112 -236q-50 -75 -107 -111q-56 -36 -135 -36q-83 0 -166 18v244h62l43 -127q30 -23 73 -23q39 0 68 19q30 20 53 53q27 39 49 84q36 75 68 147z
M709 1128v2q-46 0 -84 35q-37 34 -37 86q0 50 37 84q38 35 84 35q51 0 84 -33q34 -34 34 -86q0 -49 -34 -86t-84 -37zM373 1130h-2q-47 0 -84 37t-37 84t37 84t86 37q50 0 84 -37q35 -38 35 -82q0 -48 -35 -86q-34 -37 -84 -37z" />
    <glyph glyph-name="Amacron" unicode="&#x100;" horiz-adv-x="1478" 
d="M428 74v-74h-408v74l101 26l477 1252h289l475 -1252l102 -26v-74h-598v74l156 26l-127 346h-516l-123 -346zM641 1151l-221 -594h436zM424 1454v152h629v-152h-629z" />
    <glyph glyph-name="amacron" unicode="&#x101;" horiz-adv-x="1024" 
d="M547 961v-5q352 0 352 -260v-610l94 -25v-65h-346l-22 72q-79 -54 -140 -72q-65 -19 -127 -19q-290 0 -290 281q0 108 43 172t122 94t256 33l123 4v137q0 170 -139 170q-82 0 -188 -53l-37 -117h-68v228q167 23 221 28q82 7 146 7zM610 467l-88 -6q-96 -3 -133 -49
t-37 -152q0 -83 31 -125q29 -39 80 -39q66 0 147 35v336zM193 1112v152h628v-152h-628z" />
    <glyph glyph-name="Abreve" unicode="&#x102;" horiz-adv-x="1478" 
d="M428 74v-74h-408v74l101 26l477 1252h289l475 -1252l102 -26v-74h-598v74l156 26l-127 346h-516l-123 -346zM641 1151l-221 -594h436zM739 1454l-2 -6q-141 0 -221 86q-79 85 -82 240h101q15 -83 67 -117q50 -33 135 -33q86 0 133 35t68 117h100q-3 -158 -82 -240
t-217 -82z" />
    <glyph glyph-name="abreve" unicode="&#x103;" horiz-adv-x="1024" 
d="M547 961v-5q352 0 352 -260v-610l94 -25v-65h-346l-22 72q-79 -54 -140 -72q-65 -19 -127 -19q-290 0 -290 281q0 108 43 172t122 94t256 33l123 4v137q0 170 -139 170q-82 0 -188 -53l-37 -117h-68v228q167 23 221 28q82 7 146 7zM610 467l-88 -6q-96 -3 -133 -49
t-37 -152q0 -83 31 -125q29 -39 80 -39q66 0 147 35v336zM508 1112l-2 -6q-141 0 -221 86q-79 85 -82 240h100q15 -82 68 -117q50 -33 135 -33q86 0 133 35t68 117h100q-3 -158 -82 -240t-217 -82z" />
    <glyph glyph-name="Aogonek" unicode="&#x104;" horiz-adv-x="1478" 
d="M428 74v-74h-408v74l101 26l477 1252h289l475 -1252l102 -26v-74h-598v74l156 26l-127 346h-516l-123 -346zM641 1151l-221 -594h436zM1139 -430h2q-113 0 -174 55q-62 56 -62 158q0 70 37 131q35 58 96 100h127q-73 -107 -73 -215q0 -57 28 -88q27 -30 84 -30
q56 0 135 28v-86q-89 -53 -200 -53z" />
    <glyph glyph-name="aogonek" unicode="&#x105;" horiz-adv-x="1024" 
d="M547 961v-5q352 0 352 -260v-610l94 -25v-65h-346l-22 72q-79 -54 -140 -72q-65 -19 -127 -19q-290 0 -290 281q0 108 43 172t122 94t256 33l123 4v137q0 170 -139 170q-82 0 -188 -53l-37 -117h-68v228q167 23 221 28q82 7 146 7zM610 467l-88 -6q-96 -3 -133 -49
t-37 -152q0 -83 31 -125q29 -39 80 -39q66 0 147 35v336zM766 -438h2q-113 0 -174 55q-62 56 -62 158q0 70 37 131q35 57 97 100h127q-74 -109 -74 -215q0 -56 29 -88q28 -31 83 -31q54 0 136 29v-86q-89 -53 -201 -53z" />
    <glyph glyph-name="Cacute" unicode="&#x106;" horiz-adv-x="1478" 
d="M815 -20v-3q-338 0 -526 179q-189 180 -189 495q0 345 181 523t534 178q232 0 483 -68l7 -321h-91l-26 194q-134 90 -307 90q-231 0 -338 -143t-107 -449q0 -279 111 -426t325 -147q112 0 197 31q83 30 133 71l33 219h90l-6 -340q-90 -35 -234 -59t-270 -24zM676 1450v33
l166 272h284v-37l-364 -268h-86z" />
    <glyph glyph-name="cacute" unicode="&#x107;" horiz-adv-x="907" 
d="M858 57l2 -6q-46 -37 -125 -55q-84 -19 -164 -19q-250 0 -374 121q-123 120 -123 369q0 156 55 266q56 112 160 170q108 60 243 60q137 0 306 -35v-279h-72l-43 166q-40 28 -68 35q-38 10 -86 10q-56 0 -106 -47q-49 -46 -76 -131q-27 -86 -27 -205q0 -201 62 -287
t201 -86q129 0 235 29v-76zM383 1112v33l166 272h285v-37l-365 -268h-86z" />
    <glyph glyph-name="Ccircumflex" unicode="&#x108;" horiz-adv-x="1478" 
d="M815 -20v-3q-338 0 -526 179q-189 180 -189 495q0 345 181 523t534 178q232 0 483 -68l7 -321h-91l-26 194q-134 90 -307 90q-231 0 -338 -143t-107 -449q0 -279 111 -426t325 -147q112 0 197 31q83 30 133 71l33 219h90l-6 -340q-90 -35 -234 -59t-270 -24zM492 1518v32
l217 293h213l217 -293v-32h-76l-248 161l-248 -161h-75z" />
    <glyph glyph-name="ccircumflex" unicode="&#x109;" horiz-adv-x="907" 
d="M858 57l2 -6q-46 -37 -125 -55q-84 -19 -164 -19q-250 0 -374 121q-123 120 -123 369q0 156 55 266q56 112 160 170q108 60 243 60q137 0 306 -35v-279h-72l-43 166q-40 28 -68 35q-38 10 -86 10q-56 0 -106 -47q-49 -46 -76 -131q-27 -86 -27 -205q0 -201 62 -287
t201 -86q129 0 235 29v-76zM199 1112v33l217 293h213l217 -293v-33h-76l-248 162l-248 -162h-75z" />
    <glyph glyph-name="Cdotaccent" unicode="&#x10a;" horiz-adv-x="1478" 
d="M815 -20v-3q-338 0 -526 179q-189 180 -189 495q0 345 181 523t534 178q232 0 483 -68l7 -321h-91l-26 194q-134 90 -307 90q-231 0 -338 -143t-107 -449q0 -279 111 -426t325 -147q112 0 197 31q83 30 133 71l33 219h90l-6 -340q-90 -35 -234 -59t-270 -24zM688 1599
l-4 9q0 64 47 108q46 43 109 43q65 0 110 -45t45 -110t-43 -111q-42 -45 -108 -45q-65 0 -111 43q-45 42 -45 108z" />
    <glyph glyph-name="cdotaccent" unicode="&#x10b;" horiz-adv-x="907" 
d="M858 57l2 -6q-46 -37 -125 -55q-84 -19 -164 -19q-250 0 -374 121q-123 120 -123 369q0 156 55 266q56 112 160 170q108 60 243 60q137 0 306 -35v-279h-72l-43 166q-40 28 -68 35q-38 10 -86 10q-56 0 -106 -47q-49 -46 -76 -131q-27 -86 -27 -205q0 -201 62 -287
t201 -86q129 0 235 29v-76zM365 1262l-5 8q0 63 48 108q46 43 108 43q66 0 111 -45t45 -110t-43 -111q-42 -45 -109 -45q-64 0 -110 43q-45 42 -45 109z" />
    <glyph glyph-name="Ccaron" unicode="&#x10c;" horiz-adv-x="1478" 
d="M815 -20v-3q-338 0 -526 179q-189 180 -189 495q0 345 181 523t534 178q232 0 483 -68l7 -321h-91l-26 194q-134 90 -307 90q-231 0 -338 -143t-107 -449q0 -279 111 -426t325 -147q112 0 197 31q83 30 133 71l33 219h90l-6 -340q-90 -35 -234 -59t-270 -24zM1165 1776
v-33l-217 -293h-213l-217 293v33h76l248 -162l248 162h75z" />
    <glyph glyph-name="ccaron" unicode="&#x10d;" horiz-adv-x="907" 
d="M858 57l2 -6q-46 -37 -125 -55q-84 -19 -164 -19q-250 0 -374 121q-123 120 -123 369q0 156 55 266q56 112 160 170q108 60 243 60q137 0 306 -35v-279h-72l-43 166q-40 28 -68 35q-38 10 -86 10q-56 0 -106 -47q-49 -46 -76 -131q-27 -86 -27 -205q0 -201 62 -287
t201 -86q129 0 235 29v-76zM858 1438v-33l-217 -293h-213l-217 293v33h76l248 -162l247 162h76z" />
    <glyph glyph-name="Dcaron" unicode="&#x10e;" horiz-adv-x="1478" 
d="M1047 670q0 291 -105 426t-344 135h-74v-1116q94 -9 172 -9q128 0 205 56q76 55 111 176q35 122 35 332zM674 1341l2 -4q360 0 532 -163t172 -498q0 -343 -166 -512q-165 -168 -499 -168l-449 4h-229v74l172 26v1141l-172 27v73h637zM1018 1774v-33l-217 -293h-213
l-217 293v33h75l248 -162l248 162h76z" />
    <glyph glyph-name="dcaron" unicode="&#x10f;" horiz-adv-x="1501" 
d="M733 53h-4q-53 -36 -86 -49q-30 -12 -68 -18q-37 -6 -81 -6q-208 0 -310 120q-100 118 -100 369q0 242 109 369t317 127q108 0 219 -27q-7 39 -4 156v237l-96 25v65h385v-1331l102 -24v-66h-362zM373 475l-2 -2q0 -185 47 -285q46 -98 135 -98q81 0 168 43v709
q-73 20 -160 20q-90 0 -139 -98t-49 -289zM1493 1251l-2 -4q0 -130 -90 -223t-264 -139v80q82 25 129 69q49 46 49 94q0 22 -15 37q-16 16 -51 33q-68 35 -65 105q0 57 39 86q41 30 100 30q73 0 121 -45q49 -46 49 -123z" />
    <glyph glyph-name="Dcroat" unicode="&#x110;" horiz-adv-x="1478" 
d="M694 1341l4 -4q361 0 533 -163t172 -498q0 -343 -166 -512q-165 -168 -500 -168l-448 4h-209v74l149 26v508h-178v123h178v510l-172 27v73h637zM1073 666h2q0 294 -106 426q-108 135 -344 135h-74v-500h256v-123h-256v-493q95 -9 172 -9q128 0 205 56q75 54 110 176
t35 332z" />
    <glyph glyph-name="dcroat" unicode="&#x111;" horiz-adv-x="1138" 
d="M733 53l-6 2q-53 -36 -86 -49q-30 -12 -68 -18q-37 -6 -81 -6q-209 0 -310 116q-100 115 -100 361q0 239 111 362t317 123q112 0 219 -26q-7 40 -4 172v10h-219v102h219v129l-96 25v65h385v-219h102v-102h-102v-1010l102 -24v-66h-362zM371 467l2 -2q0 -181 47 -277
t133 -96q79 0 166 43v690q-83 21 -160 21q-89 0 -139 -96q-49 -94 -49 -283z" />
    <glyph glyph-name="Emacron" unicode="&#x112;" horiz-adv-x="1363" 
d="M35 74l172 26v1141l-172 27v73h1143v-342h-93l-30 218q-106 14 -326 14h-207v-492h350l31 148h90v-412h-90l-31 152h-350v-516h252q253 0 338 16l57 248h93l-21 -375h-1206v74zM362 1454v152h629v-152h-629z" />
    <glyph glyph-name="emacron" unicode="&#x113;" horiz-adv-x="907" 
d="M494 963h4q191 0 276 -101q86 -103 86 -315v-82h-493v-16q0 -151 24 -216q23 -62 78 -98q50 -33 147 -33q79 0 224 29v-76q-54 -34 -144 -55q-84 -20 -172 -20q-231 0 -342 120q-110 119 -110 375q0 248 104 367q106 121 318 121zM487 862h2q-58 0 -88 -65t-30 -228h217
q0 140 -8 189q-9 55 -31 80q-21 24 -62 24zM172 1120v152h629v-152h-629z" />
    <glyph glyph-name="Ebreve" unicode="&#x114;" horiz-adv-x="1363" 
d="M35 74l172 26v1141l-172 27v73h1143v-342h-93l-30 218q-106 14 -326 14h-207v-492h350l31 148h90v-412h-90l-31 152h-350v-516h252q253 0 338 16l57 248h93l-21 -375h-1206v74zM682 1454l-2 -6q-141 0 -221 86q-79 85 -82 240h100q15 -82 68 -117q50 -33 135 -33
q86 0 133 35t68 117h100q-3 -158 -82 -240t-217 -82z" />
    <glyph glyph-name="ebreve" unicode="&#x115;" horiz-adv-x="907" 
d="M494 963h4q191 0 276 -101q86 -103 86 -315v-82h-493v-16q0 -151 24 -216q23 -62 78 -98q50 -33 147 -33q79 0 224 29v-76q-54 -34 -144 -55q-84 -20 -172 -20q-231 0 -342 120q-110 119 -110 375q0 248 104 367q106 121 318 121zM487 862h2q-58 0 -88 -65t-30 -228h217
q0 140 -8 189q-9 55 -31 80q-21 24 -62 24zM487 1120l-2 -6q-141 0 -221 86q-79 85 -82 240h101q15 -83 67 -117q50 -33 135 -33q86 0 133 35t68 117h100q-3 -159 -81 -240q-79 -82 -218 -82z" />
    <glyph glyph-name="Edotaccent" unicode="&#x116;" horiz-adv-x="1363" 
d="M35 74l172 26v1141l-172 27v73h1143v-342h-93l-30 218q-106 14 -326 14h-207v-492h350l31 148h90v-412h-90l-31 152h-350v-516h252q253 0 338 16l57 248h93l-21 -375h-1206v74zM522 1602l-4 8q0 64 47 108q46 43 109 43q65 0 110 -45t45 -110t-43 -111q-42 -45 -108 -45
q-65 0 -111 43q-45 42 -45 109z" />
    <glyph glyph-name="edotaccent" unicode="&#x117;" horiz-adv-x="907" 
d="M494 963h4q191 0 276 -101q86 -103 86 -315v-82h-493v-16q0 -151 24 -216q23 -62 78 -98q50 -33 147 -33q79 0 224 29v-76q-54 -34 -144 -55q-84 -20 -172 -20q-231 0 -342 120q-110 119 -110 375q0 248 104 367q106 121 318 121zM487 862h2q-58 0 -88 -65t-30 -228h217
q0 140 -8 189q-9 55 -31 80q-21 24 -62 24zM334 1268l-4 8q0 64 47 108q46 43 108 43q66 0 111 -45t45 -110t-43 -111q-42 -45 -109 -45q-64 0 -110 43q-45 42 -45 109z" />
    <glyph glyph-name="Eogonek" unicode="&#x118;" horiz-adv-x="1363" 
d="M35 74l172 26v1141l-172 27v73h1143v-342h-93l-30 218q-106 14 -326 14h-207v-492h350l31 148h90v-412h-90l-31 152h-350v-516h252q253 0 338 16l57 248h93l-21 -375h-1206v74zM1032 -430h2q-113 0 -174 55t-61 158q0 70 37 131q35 58 96 100h127q-74 -109 -74 -215
q0 -56 29 -88q27 -30 84 -30q56 0 135 28v-86q-89 -53 -201 -53z" />
    <glyph glyph-name="eogonek" unicode="&#x119;" horiz-adv-x="907" 
d="M494 963h4q191 0 276 -101q86 -103 86 -315v-82h-493v-16q0 -151 24 -216q23 -62 78 -98q50 -33 147 -33q79 0 224 29v-76q-54 -34 -144 -55q-84 -20 -172 -20q-231 0 -342 120q-110 119 -110 375q0 248 104 367q106 121 318 121zM487 862h2q-58 0 -88 -65t-30 -228h217
q0 140 -8 189q-9 55 -31 80q-21 24 -62 24zM647 -430h2q-113 0 -174 55t-61 158q0 70 37 131q35 58 96 100h127q-74 -109 -74 -215q0 -56 29 -88q27 -30 84 -30q56 0 135 28v-86q-89 -53 -201 -53z" />
    <glyph glyph-name="Ecaron" unicode="&#x11a;" horiz-adv-x="1363" 
d="M35 74l172 26v1141l-172 27v73h1143v-342h-93l-30 218q-106 14 -326 14h-207v-492h350l31 148h90v-412h-90l-31 152h-350v-516h252q253 0 338 16l57 248h93l-21 -375h-1206v74zM987 1778v-33l-217 -293h-213l-217 293v33h76l248 -162l247 162h76z" />
    <glyph glyph-name="ecaron" unicode="&#x11b;" horiz-adv-x="907" 
d="M494 963h4q191 0 276 -101q86 -103 86 -315v-82h-493v-16q0 -151 24 -216q23 -62 78 -98q50 -33 147 -33q79 0 224 29v-76q-54 -34 -144 -55q-84 -20 -172 -20q-231 0 -342 120q-110 119 -110 375q0 248 104 367q106 121 318 121zM487 862h2q-58 0 -88 -65t-30 -228h217
q0 140 -8 189q-9 55 -31 80q-21 24 -62 24zM805 1444v-33l-217 -293h-213l-217 293v33h75l248 -162l248 162h76z" />
    <glyph glyph-name="Gcircumflex" unicode="&#x11c;" horiz-adv-x="1591" 
d="M1407 70l2 -4q-135 -43 -289 -66q-170 -25 -295 -25q-216 0 -381 80q-161 78 -251 234q-89 154 -89 362q0 339 193 520q195 183 549 183q88 0 158 -6q63 -5 133 -19q76 -15 227 -57v-309h-90l-25 174q-84 55 -174 84q-95 30 -196 30q-231 0 -340 -145
q-107 -143 -107 -449q0 -285 113 -428q115 -145 325 -145q115 0 222 35v387l-172 26v74h616v-74l-129 -26v-436zM514 1516v32l217 293h213l217 -293v-32h-76l-247 161l-248 -161h-76z" />
    <glyph glyph-name="gcircumflex" unicode="&#x11d;" horiz-adv-x="1024" 
d="M256 346l-6 -10q-179 77 -176 295q0 155 108 241q109 86 312 86q42 0 110 -6q63 -6 98 -16l226 111l35 -43l-115 -162q60 -75 63 -209q0 -162 -106 -246q-109 -86 -313 -86q-81 0 -154 12l-23 -75q3 -31 37 -54q34 -24 86 -24h219q342 0 342 -264q0 -107 -59 -187
t-174 -123q-116 -43 -289 -43q-201 0 -315 60q-111 59 -111 159q0 45 37 88q39 45 141 105q-57 20 -98 80q-41 59 -41 123zM778 -176l2 4q0 94 -127 94h-315q-88 -64 -88 -143q0 -64 61 -98q59 -33 168 -33q144 0 221 47q78 47 78 129zM489 403q75 0 109 58q35 59 35 172
q0 117 -33 170q-34 55 -111 55q-70 0 -100 -55q-31 -57 -31 -170q0 -112 31 -172q30 -58 100 -58zM168 1112v33l217 293h213l217 -293v-33h-76l-247 162l-248 -162h-76z" />
    <glyph glyph-name="Gbreve" unicode="&#x11e;" horiz-adv-x="1591" 
d="M1407 70l2 -4q-135 -43 -289 -66q-170 -25 -295 -25q-216 0 -381 80q-161 78 -251 234q-89 154 -89 362q0 339 193 520q195 183 549 183q88 0 158 -6q63 -5 133 -19q76 -15 227 -57v-309h-90l-25 174q-84 55 -174 84q-95 30 -196 30q-231 0 -340 -145
q-107 -143 -107 -449q0 -285 113 -428q115 -145 325 -145q115 0 222 35v387l-172 26v74h616v-74l-129 -26v-436zM850 1450l-2 -6q-141 0 -221 86q-79 85 -82 239h100q15 -81 68 -116q50 -33 135 -33q86 0 133 35t68 117h100q-3 -158 -82 -240t-217 -82z" />
    <glyph glyph-name="gbreve" unicode="&#x11f;" horiz-adv-x="1024" 
d="M256 346l-6 -10q-179 77 -176 295q0 155 108 241q109 86 312 86q42 0 110 -6q63 -6 98 -16l226 111l35 -43l-115 -162q60 -75 63 -209q0 -162 -106 -246q-109 -86 -313 -86q-81 0 -154 12l-23 -75q3 -31 37 -54q34 -24 86 -24h219q342 0 342 -264q0 -107 -59 -187
t-174 -123q-116 -43 -289 -43q-201 0 -315 60q-111 59 -111 159q0 45 37 88q39 45 141 105q-57 20 -98 80q-41 59 -41 123zM778 -176l2 4q0 94 -127 94h-315q-88 -64 -88 -143q0 -64 61 -98q59 -33 168 -33q144 0 221 47q78 47 78 129zM489 403q75 0 109 58q35 59 35 172
q0 117 -33 170q-34 55 -111 55q-70 0 -100 -55q-31 -57 -31 -170q0 -112 31 -172q30 -58 100 -58zM506 1114l-2 -6q-141 0 -221 86q-79 85 -82 240h100q15 -82 68 -117q50 -33 135 -33q86 0 133 35t68 117h100q-3 -158 -82 -240t-217 -82z" />
    <glyph glyph-name="Gdotaccent" unicode="&#x120;" horiz-adv-x="1591" 
d="M1407 70l2 -4q-135 -43 -289 -66q-170 -25 -295 -25q-216 0 -381 80q-161 78 -251 234q-89 154 -89 362q0 339 193 520q195 183 549 183q88 0 158 -6q63 -5 133 -19q76 -15 227 -57v-309h-90l-25 174q-84 55 -174 84q-95 30 -196 30q-231 0 -340 -145
q-107 -143 -107 -449q0 -285 113 -428q115 -145 325 -145q115 0 222 35v387l-172 26v74h616v-74l-129 -26v-436zM690 1597l-4 9q0 64 47 108q46 43 109 43q65 0 110 -45t45 -110t-43 -111q-42 -45 -108 -45q-65 0 -111 43q-45 42 -45 108z" />
    <glyph glyph-name="gdotaccent" unicode="&#x121;" horiz-adv-x="1024" 
d="M256 346l-6 -10q-179 77 -176 295q0 155 108 241q109 86 312 86q42 0 110 -6q63 -6 98 -16l226 111l35 -43l-115 -162q60 -75 63 -209q0 -162 -106 -246q-109 -86 -313 -86q-81 0 -154 12l-23 -75q3 -31 37 -54q34 -24 86 -24h219q342 0 342 -264q0 -107 -59 -187
t-174 -123q-116 -43 -289 -43q-201 0 -315 60q-111 59 -111 159q0 45 37 88q39 45 141 105q-57 20 -98 80q-41 59 -41 123zM778 -176l2 4q0 94 -127 94h-315q-88 -64 -88 -143q0 -64 61 -98q59 -33 168 -33q144 0 221 47q78 47 78 129zM489 403q75 0 109 58q35 59 35 172
q0 117 -33 170q-34 55 -111 55q-70 0 -100 -55q-31 -57 -31 -170q0 -112 31 -172q30 -58 100 -58zM348 1262l-4 8q0 64 47 108q46 43 109 43q65 0 110 -45t45 -110t-43 -111q-42 -45 -108 -45q-65 0 -111 43q-45 42 -45 109z" />
    <glyph glyph-name="Gcommaaccent" unicode="&#x122;" horiz-adv-x="1591" 
d="M1407 70l2 -4q-135 -43 -289 -66q-170 -25 -295 -25q-216 0 -381 80q-161 78 -251 234q-89 154 -89 362q0 339 193 520q195 183 549 183q88 0 158 -6q63 -5 133 -19q76 -15 227 -57v-309h-90l-25 174q-84 55 -174 84q-95 30 -196 30q-231 0 -340 -145
q-107 -143 -107 -449q0 -285 113 -428q115 -145 325 -145q115 0 222 35v387l-172 26v74h616v-74l-129 -26v-436zM975 -242l-2 -6q0 -114 -82 -184q-83 -71 -240 -98v67q73 20 113 49q37 27 37 74q0 25 -19 41q-26 22 -39 31q-11 7 -38 35q-19 19 -19 53q0 47 37 74
q39 28 100 28q71 0 111 -43q41 -44 41 -121z" />
    <glyph glyph-name="gcommaaccent" unicode="&#x123;" horiz-adv-x="1024" 
d="M256 346l-6 -10q-179 77 -176 295q0 155 108 241q109 86 312 86q42 0 110 -6q63 -6 98 -16l226 111l35 -43l-115 -162q60 -75 63 -209q0 -162 -106 -246q-109 -86 -313 -86q-81 0 -154 12l-23 -75q3 -31 37 -54q34 -24 86 -24h219q342 0 342 -264q0 -107 -59 -187
t-174 -123q-116 -43 -289 -43q-201 0 -315 60q-111 59 -111 159q0 45 37 88q39 45 141 105q-57 20 -98 80q-41 59 -41 123zM778 -176l2 4q0 94 -127 94h-315q-88 -64 -88 -143q0 -64 61 -98q59 -33 168 -33q144 0 221 47q78 47 78 129zM489 403q75 0 109 58q35 59 35 172
q0 117 -33 170q-34 55 -111 55q-70 0 -100 -55q-31 -57 -31 -170q0 -112 31 -172q30 -58 100 -58zM344 1280l-2 2q0 112 84 184t240 99v-70q-73 -20 -113 -49q-37 -27 -37 -70q0 -25 19 -41q24 -20 38 -30t39 -35q19 -19 19 -51q0 -47 -37 -74q-40 -29 -100 -29
q-71 0 -111 43q-39 42 -39 121z" />
    <glyph glyph-name="Hcircumflex" unicode="&#x124;" horiz-adv-x="1591" 
d="M35 0v74l172 26v1141l-172 27v73h659v-73l-172 -27v-496h547v496l-172 27v73h662v-73l-173 -27v-1141l173 -26v-74h-662v74l172 26v535h-547v-535l172 -26v-74h-659zM473 1452v33l217 293h213l217 -293v-33h-76l-247 162l-248 -162h-76z" />
    <glyph glyph-name="hcircumflex" unicode="&#x125;" horiz-adv-x="1138" 
d="M436 1014h2q0 -66 -6 -154l70 35q144 72 254 72q260 0 260 -277v-598l94 -24v-66h-467v66l84 24v559q0 83 -37 129q-38 47 -100 47q-79 0 -154 -34v-703l86 -24v-66h-467v66l92 24v1241l-96 25v65h385v-407zM248 1532v33l217 293h213l217 -293v-33h-76l-248 162
l-247 -162h-76z" />
    <glyph glyph-name="Hbar" unicode="&#x126;" horiz-adv-x="1591" 
d="M35 0v74l172 26v852h-172v111h172v178l-172 27v73h659v-73l-172 -27v-178h547v178l-172 27v73h662v-73l-173 -27v-178h173v-111h-173v-852l173 -26v-74h-662v74l172 26v535h-547v-535l172 -26v-74h-659zM1069 745v207h-547v-207h547z" />
    <glyph glyph-name="hbar" unicode="&#x127;" horiz-adv-x="1138" 
d="M686 1100h-248v-107q0 -65 -6 -153l70 34q144 72 254 72q260 0 260 -276v-578l94 -24v-66h-467v66l84 24v539q0 83 -37 129q-38 47 -100 47q-76 0 -154 -35v-682l86 -24v-66h-467v66l92 24v1010h-145v102h145v129l-96 25v65h385v-219h250v-102z" />
    <glyph glyph-name="Itilde" unicode="&#x128;" horiz-adv-x="796" 
d="M555 100l172 -26v-74h-657v74l172 26v1141l-172 27v73h657v-73l-172 -27v-1141zM520 1454v-4q-86 0 -196 88q-57 45 -93 45q-34 0 -47 -22q-13 -23 -22 -93h-105q9 153 66 222q55 67 151 67q48 0 88 -18q39 -17 111 -68q60 -45 88 -45q19 0 31 6q11 6 18 23q8 19 19 86
h104q-9 -152 -61 -219q-53 -68 -152 -68z" />
    <glyph glyph-name="itilde" unicode="&#x129;" horiz-adv-x="567" 
d="M436 90l103 -24v-66h-494v66l102 24v760l-96 24v66h385v-850zM410 1120v-4q-87 0 -197 88q-57 45 -92 45q-34 0 -47 -22q-14 -25 -23 -92h-104q9 153 65 221q55 67 152 67q48 0 88 -18q36 -16 110 -68q60 -45 89 -45q18 0 30 6t19 23q6 15 18 86h105q-9 -151 -62 -219
t-151 -68z" />
    <glyph glyph-name="Imacron" unicode="&#x12a;" horiz-adv-x="796" 
d="M555 100l172 -26v-74h-657v74l172 26v1141l-172 27v73h657v-73l-172 -27v-1141zM84 1454v152h629v-152h-629z" />
    <glyph glyph-name="imacron" unicode="&#x12b;" horiz-adv-x="567" 
d="M436 90l103 -24v-66h-494v66l102 24v760l-96 24v66h385v-850zM-29 1120v152h629v-152h-629z" />
    <glyph glyph-name="Ibreve" unicode="&#x12c;" horiz-adv-x="796" 
d="M555 100l172 -26v-74h-657v74l172 26v1141l-172 27v73h657v-73l-172 -27v-1141zM397 1454l-2 -6q-141 0 -221 86q-79 85 -82 240h101q15 -83 67 -117q50 -33 135 -33q86 0 133 35t68 117h100q-3 -158 -82 -240t-217 -82z" />
    <glyph glyph-name="ibreve" unicode="&#x12d;" horiz-adv-x="567" 
d="M436 90l103 -24v-66h-494v66l102 24v760l-96 24v66h385v-850zM289 1120l-2 -6q-141 0 -221 86q-79 85 -82 240h100q15 -82 68 -117q50 -33 135 -33q86 0 133 35q46 34 67 117h101q-3 -158 -82 -240t-217 -82z" />
    <glyph glyph-name="Iogonek" unicode="&#x12e;" horiz-adv-x="796" 
d="M555 100l172 -26v-74h-657v74l172 26v1141l-172 27v73h657v-73l-172 -27v-1141zM465 -430h2q-113 0 -174 55q-62 56 -62 158q0 70 37 131q35 57 97 100h127q-74 -109 -74 -215q0 -57 28 -88q27 -30 84 -30t136 28v-86q-89 -53 -201 -53z" />
    <glyph glyph-name="iogonek" unicode="&#x12f;" horiz-adv-x="567" 
d="M436 90l103 -24v-66h-494v66l102 24v760l-96 24v66h385v-850zM137 1268l-4 8q0 66 45 108q46 43 111 43t110 -45t45 -110t-43 -111q-42 -45 -108 -45q-65 0 -111 43q-45 42 -45 109zM336 -422h2q-113 0 -174 55q-62 56 -62 158q0 70 37 131q36 59 97 101h126
q-73 -107 -73 -216q0 -57 28 -88q27 -30 84 -30t136 28v-86q-89 -53 -201 -53z" />
    <glyph glyph-name="Idotaccent" unicode="&#x130;" horiz-adv-x="796" 
d="M555 100l172 -26v-74h-657v74l172 26v1141l-172 27v73h657v-73l-172 -27v-1141zM244 1602l-4 8q0 64 47 108q46 43 108 43q66 0 111 -45t45 -110t-43 -111q-42 -45 -109 -45q-64 0 -110 43q-45 42 -45 109z" />
    <glyph glyph-name="dotlessi" unicode="&#x131;" horiz-adv-x="567" 
d="M436 90l103 -24v-66h-494v66l102 24v760l-96 24v66h385v-850z" />
    <glyph glyph-name="IJ" unicode="&#x132;" horiz-adv-x="1683" 
d="M555 100l172 -26v-74h-657v74l172 26v1141l-172 27v73h657v-73l-172 -27v-1141zM1174 1241l-175 19v73h639v-73l-153 -27v-809q0 -218 -119 -334q-120 -117 -340 -117q-59 0 -149 11q-67 8 -117 22v303h90l31 -178q20 -24 53 -35q34 -12 78 -12q70 0 116 49t46 143v965z
" />
    <glyph glyph-name="ij" unicode="&#x133;" horiz-adv-x="1130" 
d="M436 90l103 -24v-66h-494v66l102 24v760l-96 24v66h385v-850zM137 1268l-4 8q0 66 45 108q46 43 111 43t110 -45t45 -110t-43 -111q-42 -45 -108 -45q-65 0 -111 43q-45 42 -45 109zM997 1276l-4 4q0 -65 -43 -111q-42 -45 -108 -45q-65 0 -111 43q-45 42 -45 109
q0 65 45 110q46 46 111 46q64 0 110 -46q45 -45 45 -110zM985 -27l2 -2q0 -190 -100 -293q-101 -104 -289 -104q-90 0 -172 18v226h63l43 -115q24 -18 50 -18q54 0 84 67q30 68 30 189v911l-166 35v65h455v-979z" />
    <glyph glyph-name="Jcircumflex" unicode="&#x134;" horiz-adv-x="1024" 
d="M502 1241l-174 19v73h639v-73l-154 -27v-809q0 -218 -119 -334q-120 -117 -340 -117q-59 0 -149 11q-67 8 -117 22v303h90l31 -178q20 -24 53 -35q34 -12 78 -12q71 0 117 49q45 48 45 143v965zM326 1444v33l217 292h213l217 -292v-33h-76l-248 162l-248 -162h-75z" />
    <glyph glyph-name="jcircumflex" unicode="&#x135;" horiz-adv-x="681" 
d="M545 -39l2 -2q0 -189 -101 -293t-288 -104q-90 0 -172 18v225h63l43 -114q25 -19 49 -19q54 0 84 68q31 70 31 188v912l-166 34v66h455v-979zM66 1116v33l219 293h213l217 -293v-33h-76l-250 162l-248 -162h-75z" />
    <glyph glyph-name="Kcommaaccent" unicode="&#x136;" horiz-adv-x="1591" 
d="M1468 1341v-73l-163 -27l-443 -389l590 -752l125 -26v-74h-438l-500 645l-117 -98v-447l193 -26v-74h-680v74l172 26v1141l-172 27v73h659v-73l-172 -27v-545l611 545l-123 27v73h458zM948 -238l-2 -6q0 -114 -82 -184q-83 -71 -239 -98v67q71 19 112 49q37 27 37 74
q0 26 -18 41q-26 22 -39 31q-14 10 -39 35q-19 19 -19 53q0 47 37 74q39 28 101 28q70 0 110 -43q41 -44 41 -121z" />
    <glyph glyph-name="kcommaaccent" unicode="&#x137;" horiz-adv-x="1138" 
d="M436 451l367 401l-101 22v66h359v-66l-109 -22l-223 -236l324 -526l84 -24v-66h-453v66l55 24l-188 330l-115 -80v-250l92 -24v-66h-471v66l90 24v1241l-96 25v65h385v-970zM721 -238l-2 -6q0 -114 -82 -184q-83 -71 -240 -98v67q73 20 113 49q37 27 37 74q0 25 -19 41
q-26 22 -39 31q-10 8 -38 35q-19 19 -19 53q0 47 37 74q39 28 100 28q71 0 111 -43q41 -44 41 -121z" />
    <glyph glyph-name="kgreenlandic" unicode="&#x138;" horiz-adv-x="1138" 
d="M436 451l367 401l-101 22v66h359v-66l-109 -22l-223 -236l324 -526l84 -24v-66h-453v66l55 24l-188 330l-115 -80v-250l92 -24v-66h-471v66l90 24v760l-96 24v66h385v-489z" />
    <glyph glyph-name="Lacute" unicode="&#x139;" horiz-adv-x="1363" 
d="M729 1268l-207 -27v-1135h273q211 0 313 21l82 279h90l-39 -406h-1206v74l172 26v1141l-170 27v73h692v-73zM317 1452v33l166 272h285v-37l-365 -268h-86z" />
    <glyph glyph-name="lacute" unicode="&#x13a;" horiz-adv-x="567" 
d="M430 90l105 -24v-66h-494v66l100 24v1241l-96 25v65h385v-1331zM139 1532v33l166 272h285v-37l-365 -268h-86z" />
    <glyph glyph-name="Lcommaaccent" unicode="&#x13b;" horiz-adv-x="1363" 
d="M729 1268l-207 -27v-1135h273q211 0 313 21l82 279h90l-39 -406h-1206v74l172 26v1141l-170 27v73h692v-73zM836 -238l-2 -6q0 -114 -82 -184q-83 -71 -240 -98v67q73 20 113 49q37 27 37 74q0 25 -19 41q-26 22 -39 31q-14 10 -39 35q-18 18 -18 53q0 47 37 74
q39 28 100 28q71 0 111 -43q41 -44 41 -121z" />
    <glyph glyph-name="lcommaaccent" unicode="&#x13c;" horiz-adv-x="567" 
d="M430 90l105 -24v-66h-494v66l100 24v1241l-96 25v65h385v-1331zM434 -238l-2 -6q0 -114 -82 -184q-83 -71 -239 -98v67q71 19 112 49q37 27 37 74q0 26 -18 41q-26 22 -39 31q-14 10 -39 35q-19 19 -19 53q0 47 37 74q39 28 101 28q70 0 110 -43q41 -44 41 -121z" />
    <glyph glyph-name="Lcaron" unicode="&#x13d;" horiz-adv-x="1363" 
d="M729 1268l-207 -27v-1135h273q211 0 313 21l82 279h90l-39 -406h-1206v74l172 26v1141l-170 27v73h692v-73zM1204 1194l-2 -4q0 -130 -90 -223q-91 -94 -264 -140v80q80 24 129 70t49 94q0 23 -14 37q-16 16 -51 33q-69 35 -66 104q0 57 39 86q42 31 100 31q73 0 121 -45
q49 -46 49 -123z" />
    <glyph glyph-name="lcaron" unicode="&#x13e;" horiz-adv-x="958" 
d="M430 90l105 -24v-66h-494v66l100 24v1241l-96 25v65h385v-1331zM922 1253l-2 -4q0 -129 -91 -223q-90 -93 -264 -139v80q82 25 129 69q49 46 49 94q0 23 -14 37q-16 16 -51 33q-69 35 -66 105q0 57 39 86q41 30 101 30q72 0 120 -45q50 -47 50 -123z" />
    <glyph glyph-name="Ldot" unicode="&#x13f;" horiz-adv-x="1363" 
d="M729 1268l-207 -27v-1135h273q211 0 313 21l82 279h90l-39 -406h-1206v74l172 26v1141l-170 27v73h692v-73zM754 754l-4 8q0 64 47 108q46 43 108 43q66 0 111 -45t45 -110t-43 -111q-42 -45 -109 -45q-64 0 -110 43q-45 42 -45 109z" />
    <glyph glyph-name="ldot" unicode="&#x140;" horiz-adv-x="808" 
d="M432 90l105 -24v-66h-494v66l100 24v1241l-96 25v65h385v-1331zM537 754l-5 8q0 63 48 108q46 43 108 43q66 0 111 -45t45 -110t-43 -111q-42 -45 -109 -45q-64 0 -110 43q-45 42 -45 109z" />
    <glyph glyph-name="Lslash" unicode="&#x141;" horiz-adv-x="1363" 
d="M207 633v608l-170 27v73h692v-73l-207 -27v-428l240 137v-133l-240 -137v-574h273q205 0 313 21l82 279h90l-39 -406h-1206v74l172 26v398l-164 -97v138z" />
    <glyph glyph-name="lslash" unicode="&#x142;" horiz-adv-x="567" 
d="M20 532l121 70v729l-96 25v65h385v-651l129 74v-123l-129 -76v-555l105 -24v-66h-494v66l100 24v387l-121 -69v124z" />
    <glyph glyph-name="Nacute" unicode="&#x143;" horiz-adv-x="1478" 
d="M1155 1241l-180 27v73h477v-73l-172 -27v-1241h-117l-827 1077v-977l180 -26v-74h-477v74l172 26v1141l-172 27v73h459l657 -858v758zM635 1452v33l166 272h284v-37l-364 -268h-86z" />
    <glyph glyph-name="nacute" unicode="&#x144;" horiz-adv-x="1138" 
d="M434 858l70 37q141 72 252 72q260 0 260 -277v-598l94 -24v-66h-467v66l84 24v559q0 83 -37 129q-38 47 -100 47q-79 0 -154 -34v-703l86 -24v-66h-467v66l92 24v760l-92 24v66h365zM463 1120v33l166 272h284v-36l-364 -269h-86z" />
    <glyph glyph-name="Ncommaaccent" unicode="&#x145;" horiz-adv-x="1478" 
d="M1155 1241l-180 27v73h477v-73l-172 -27v-1241h-117l-827 1077v-977l180 -26v-74h-477v74l172 26v1141l-172 27v73h459l657 -858v758zM920 -238l-2 -6q0 -114 -82 -184q-83 -71 -240 -98v67q73 20 113 49q36 26 36 74q0 26 -18 41q-26 22 -39 31q-14 10 -39 35
q-18 18 -18 53q0 47 37 74q39 28 100 28q71 0 111 -43q41 -44 41 -121z" />
    <glyph glyph-name="ncommaaccent" unicode="&#x146;" horiz-adv-x="1138" 
d="M434 858l70 37q141 72 252 72q260 0 260 -277v-598l94 -24v-66h-467v66l84 24v559q0 83 -37 129q-38 47 -100 47q-79 0 -154 -34v-703l86 -24v-66h-467v66l92 24v760l-92 24v66h365zM743 -236l-2 -6q0 -114 -82 -184q-83 -71 -239 -98v67q71 19 112 49q37 27 37 74
q0 26 -18 41q-26 22 -39 31q-14 10 -39 35q-18 18 -18 53q0 47 37 74q39 28 100 28q70 0 110 -43q41 -44 41 -121z" />
    <glyph glyph-name="Ncaron" unicode="&#x147;" horiz-adv-x="1478" 
d="M1155 1241l-180 27v73h477v-73l-172 -27v-1241h-117l-827 1077v-977l180 -26v-74h-477v74l172 26v1141l-172 27v73h459l657 -858v758zM1063 1778v-33l-217 -293h-213l-217 293v33h76l247 -162l248 162h76z" />
    <glyph glyph-name="ncaron" unicode="&#x148;" horiz-adv-x="1138" 
d="M434 858l70 37q141 72 252 72q260 0 260 -277v-598l94 -24v-66h-467v66l84 24v559q0 83 -37 129q-38 47 -100 47q-79 0 -154 -34v-703l86 -24v-66h-467v66l92 24v760l-92 24v66h365zM903 1446v-33l-217 -293h-213l-217 293v33h76l248 -162l247 162h76z" />
    <glyph glyph-name="napostrophe" unicode="&#x149;" horiz-adv-x="1492" 
d="M778 858l70 37q141 72 252 72q260 0 260 -277v-598l94 -24v-66h-467v66l84 24v559q0 83 -37 129q-38 47 -100 47q-79 0 -154 -34v-703l86 -24v-66h-467v66l93 24v760l-93 24v66h365zM422 1227q0 -156 -105 -264t-303 -160v92q62 17 111 49q45 29 70 68q24 38 24 71
q0 25 -18 43q-19 19 -58 39q-75 40 -75 123q0 61 43 98t116 37q85 0 140 -55t55 -141z" />
    <glyph glyph-name="Eng" unicode="&#x14a;" horiz-adv-x="1574" 
d="M1085 985h-6q0 112 -53 174t-154 62q-148 0 -350 -105v-1014l103 -14v-86h-588v74l170 26v1141l-170 27v73h471l14 -122q110 62 226 100q100 33 213 33q438 0 438 -383v-537q0 -220 -109 -338q-107 -116 -332 -116q-132 0 -221 30v275h90l33 -158q41 -41 105 -41
q120 0 120 197v702z" />
    <glyph glyph-name="eng" unicode="&#x14b;" horiz-adv-x="1138" 
d="M434 858l72 31q141 72 252 72q250 0 250 -277v-727q0 -189 -101 -293t-289 -104q-90 0 -172 18v225h64l43 -114q25 -19 49 -19q54 0 84 68q31 70 31 188v721q0 97 -31 139q-30 41 -96 41q-79 0 -154 -34v-703l86 -24v-66h-467v66l92 24v760l-92 24v66h365z" />
    <glyph glyph-name="Omacron" unicode="&#x14c;" horiz-adv-x="1591" 
d="M432 672v-2q0 -319 86 -455q86 -135 277 -135q188 0 276 137t88 455q0 317 -88 448q-89 133 -276 133q-191 0 -277 -133t-86 -448zM100 670v-4q0 684 697 684q345 0 520 -172q176 -173 176 -510q0 -341 -178 -516t-518 -175q-338 0 -518 177q-179 176 -179 516zM481 1448
v151h629v-151h-629z" />
    <glyph glyph-name="omacron" unicode="&#x14d;" horiz-adv-x="1024" 
d="M514 965q224 0 328 -125t104 -365q0 -247 -105 -371t-335 -124q-428 0 -428 495q0 244 104.5 367t331.5 123zM653 475q0 50 -0.5 75t-2 69t-5.5 67.5t-10.5 57t-17 51t-25.5 36t-36 26t-48 7.5q-20 0 -36.5 -5t-29.5 -16.5t-23 -24t-17.5 -33.5t-12.5 -39t-8.5 -47
t-5.5 -50t-3 -56t-1 -57.5v-60.5q0 -54 0.5 -87.5t3.5 -80t8 -75t15 -61t24.5 -50t36 -29.5t49.5 -12q27 0 48 8t36 26.5t25.5 37t17 52.5t10.5 58t5.5 68.5t2 69.5t0.5 75zM197 1120v152h628v-152h-628z" />
    <glyph glyph-name="Obreve" unicode="&#x14e;" horiz-adv-x="1591" 
d="M432 672v-2q0 -319 86 -455q86 -135 277 -135q188 0 276 137t88 455q0 317 -88 448q-89 133 -276 133q-191 0 -277 -133t-86 -448zM100 670v-4q0 684 697 684q345 0 520 -172q176 -173 176 -510q0 -341 -178 -516t-518 -175q-338 0 -518 177q-179 176 -179 516zM797 1448
l-2 -6q-142 0 -222 86q-78 84 -81 239h100q15 -82 67 -116q50 -33 136 -33t133 35q46 34 67 116h101q-3 -157 -82 -239t-217 -82z" />
    <glyph glyph-name="obreve" unicode="&#x14f;" horiz-adv-x="1024" 
d="M514 965q224 0 328 -125t104 -365q0 -247 -105 -371t-335 -124q-428 0 -428 495q0 244 104.5 367t331.5 123zM653 475q0 50 -0.5 75t-2 69t-5.5 67.5t-10.5 57t-17 51t-25.5 36t-36 26t-48 7.5q-20 0 -36.5 -5t-29.5 -16.5t-23 -24t-17.5 -33.5t-12.5 -39t-8.5 -47
t-5.5 -50t-3 -56t-1 -57.5v-60.5q0 -54 0.5 -87.5t3.5 -80t8 -75t15 -61t24.5 -50t36 -29.5t49.5 -12q27 0 48 8t36 26.5t25.5 37t17 52.5t10.5 58t5.5 68.5t2 69.5t0.5 75zM512 1120l-2 -6q-141 0 -221 86q-79 85 -82 240h100q15 -82 68 -117q50 -33 135 -33q86 0 133 35
t68 117h100q-3 -158 -82 -240t-217 -82z" />
    <glyph glyph-name="Ohungarumlaut" unicode="&#x150;" horiz-adv-x="1591" 
d="M432 672v-2q0 -319 86 -455q86 -135 277 -135q188 0 276 137t88 455q0 317 -88 448q-89 133 -276 133q-191 0 -277 -133t-86 -448zM100 670v-4q0 684 697 684q345 0 520 -172q176 -173 176 -510q0 -341 -178 -516t-518 -175q-338 0 -518 177q-179 176 -179 516zM551 1446
v33l137 293h252v-37l-293 -289h-96zM901 1446v33l137 293h252v-37l-293 -289h-96z" />
    <glyph glyph-name="ohungarumlaut" unicode="&#x151;" horiz-adv-x="1024" 
d="M514 965q224 0 328 -125t104 -365q0 -247 -105 -371t-335 -124q-428 0 -428 495q0 244 104.5 367t331.5 123zM653 475q0 50 -0.5 75t-2 69t-5.5 67.5t-10.5 57t-17 51t-25.5 36t-36 26t-48 7.5q-20 0 -36.5 -5t-29.5 -16.5t-23 -24t-17.5 -33.5t-12.5 -39t-8.5 -47
t-5.5 -50t-3 -56t-1 -57.5v-60.5q0 -54 0.5 -87.5t3.5 -80t8 -75t15 -61t24.5 -50t36 -29.5t49.5 -12q27 0 48 8t36 26.5t25.5 37t17 52.5t10.5 58t5.5 68.5t2 69.5t0.5 75zM225 1118v33l137 293h252v-37l-292 -289h-97zM575 1118v33l138 293h252v-37l-293 -289h-97z" />
    <glyph glyph-name="OE" unicode="&#x152;" horiz-adv-x="2048" 
d="M113 676l2 -2q0 342 172 508t526 166q84 0 195 -9h854v-342h-93l-30 217q-114 15 -338 15h-109v-492h262l31 148h90v-412h-90l-31 152h-262v-516h154q59 0 203 4q107 3 145 12l57 248h93l-21 -375h-934q-120 -6 -178 -6q-342 0 -520 172t-178 512zM446 674h-2
q0 -315 86 -451q86 -135 281 -135q111 0 166 21v1116q-61 18 -166 18q-193 0 -279 -129q-86 -130 -86 -440z" />
    <glyph glyph-name="oe" unicode="&#x153;" horiz-adv-x="1478" 
d="M1047 963v-2q201 0 292 -105q93 -107 93 -313v-82h-523v-17q0 -141 25 -208q24 -63 84 -99q56 -33 160 -33q48 0 112 11l105 18v-76q-121 -75 -269 -75q-231 0 -352 133q-94 -135 -301 -135q-215 0 -319 122q-105 123 -105 373q0 252 107 371t325 119q188 0 283 -121
q94 119 283 119zM612 473l-2 -2q0 231 -30 311t-109 80q-53 0 -80 -35t-39 -108t-12 -246q0 -179 12 -252q11 -70 41 -108q27 -35 80 -35q79 0 109 80q30 79 30 315zM1032 858h-4q-65 0 -94 -63q-31 -67 -31 -230h230q0 145 -9 195t-30 74t-62 24z" />
    <glyph glyph-name="Racute" unicode="&#x154;" horiz-adv-x="1478" 
d="M522 567v-465l172 -26v-74h-647v74l160 26v1141l-172 27v73h641q297 0 442 -92q146 -93 146 -284q0 -288 -271 -371l359 -496l145 -26v-74h-434l-375 567h-166zM952 967l-2 -2q0 151 -61 209q-62 59 -225 59h-142v-553h146q154 0 219 65t65 222zM555 1452v33l166 272h285
v-37l-365 -268h-86z" />
    <glyph glyph-name="racute" unicode="&#x155;" horiz-adv-x="907" 
d="M461 745l-2 -2q106 118 194 172t158 54h53v-344h-55l-59 127q-64 0 -144 -27q-87 -29 -139 -63v-572l149 -24v-66h-561v66l121 24v760l-121 24v66h396zM342 1116v33l166 272h285v-37l-365 -268h-86z" />
    <glyph glyph-name="Rcommaaccent" unicode="&#x156;" horiz-adv-x="1478" 
d="M522 567v-465l172 -26v-74h-647v74l160 26v1141l-172 27v73h641q297 0 442 -92q146 -93 146 -284q0 -288 -271 -371l359 -496l145 -26v-74h-434l-375 567h-166zM952 967l-2 -2q0 151 -61 209q-62 59 -225 59h-142v-553h146q154 0 219 65t65 222zM915 -238l-2 -6
q0 -114 -82 -184q-83 -71 -239 -98v67q73 20 113 49q36 26 36 74q0 26 -18 41q-26 22 -39 31q-14 10 -39 35q-18 18 -18 53q0 47 37 74q39 28 100 28q70 0 110 -43q41 -44 41 -121z" />
    <glyph glyph-name="rcommaaccent" unicode="&#x157;" horiz-adv-x="907" 
d="M461 745l-2 -2q106 118 194 172t158 54h53v-344h-55l-59 127q-64 0 -144 -27q-87 -29 -139 -63v-572l149 -24v-66h-561v66l121 24v760l-121 24v66h396zM473 -240l-2 -6q0 -114 -82 -184q-83 -71 -239 -98v67q71 19 112 49q37 27 37 74q0 26 -18 41q-26 22 -39 31
q-14 10 -39 35q-19 19 -19 53q0 47 37 74q39 28 101 28q70 0 110 -43q41 -44 41 -121z" />
    <glyph glyph-name="Rcaron" unicode="&#x158;" horiz-adv-x="1478" 
d="M522 567v-465l172 -26v-74h-647v74l160 26v1141l-172 27v73h641q297 0 442 -92q146 -93 146 -284q0 -288 -271 -371l359 -496l145 -26v-74h-434l-375 567h-166zM952 967l-2 -2q0 151 -61 209q-62 59 -225 59h-142v-553h146q154 0 219 65t65 222zM1036 1778v-33l-217 -293
h-213l-217 293v33h76l248 -162l248 162h75z" />
    <glyph glyph-name="rcaron" unicode="&#x159;" horiz-adv-x="907" 
d="M461 745l-2 -2q106 118 194 172t158 54h53v-344h-55l-59 127q-64 0 -144 -27q-87 -29 -139 -63v-572l149 -24v-66h-561v66l121 24v760l-121 24v66h396zM788 1442v-33l-217 -293h-213l-217 293v33h76l248 -162l248 162h75z" />
    <glyph glyph-name="Sacute" unicode="&#x15a;" horiz-adv-x="1138" 
d="M109 412l84 2l45 -215q41 -46 129 -82q82 -33 176 -33q286 0 286 235q0 73 -55 125q-56 53 -172 93q-182 62 -248 94q-79 39 -129 86q-52 49 -82 117t-30 165q0 177 120 269q121 92 351 92q171 0 374 -43v-320h-90l-45 185q-101 73 -237 73q-127 0 -189 -45
q-65 -47 -65 -141q0 -69 55 -115q56 -47 172 -84q231 -77 315 -131q86 -56 132 -137q45 -80 45 -192q0 -427 -504 -430q-114 0 -234 18q-116 17 -204 53v361zM477 1454v33l166 272h285v-37l-365 -268h-86z" />
    <glyph glyph-name="sacute" unicode="&#x15b;" horiz-adv-x="796" 
d="M748 299h-9q0 -157 -96 -238q-94 -79 -281 -79q-69 0 -167 16q-86 14 -140 35v256h66l39 -131q34 -34 92 -58t117 -24q86 0 129 37t43 96q0 53 -41 88q-37 32 -178 76q-143 46 -205 123t-62 190q0 124 97 203q96 78 245 78q89 0 277 -29v-242h-68l-31 111q-30 30 -79 47
q-52 18 -99 18q-70 0 -104 -30q-35 -30 -35 -80q0 -52 43 -86q42 -33 178 -74q147 -48 207 -119q62 -74 62 -184zM291 1118v33l166 272h284v-37l-364 -268h-86z" />
    <glyph glyph-name="Scircumflex" unicode="&#x15c;" horiz-adv-x="1138" 
d="M109 412l84 2l45 -215q41 -46 129 -82q82 -33 176 -33q286 0 286 235q0 73 -55 125q-56 53 -172 93q-182 62 -248 94q-79 39 -129 86q-52 49 -82 117t-30 165q0 177 120 269q121 92 351 92q171 0 374 -43v-320h-90l-45 185q-101 73 -237 73q-127 0 -189 -45
q-65 -47 -65 -141q0 -69 55 -115q56 -47 172 -84q231 -77 315 -131q86 -56 132 -137q45 -80 45 -192q0 -427 -504 -430q-114 0 -234 18q-116 17 -204 53v361zM242 1454v33l217 293h213l217 -293v-33h-76l-248 162l-248 -162h-75z" />
    <glyph glyph-name="scircumflex" unicode="&#x15d;" horiz-adv-x="796" 
d="M748 299h-9q0 -157 -96 -238q-94 -79 -281 -79q-69 0 -167 16q-86 14 -140 35v256h66l39 -131q34 -34 92 -58t117 -24q86 0 129 37t43 96q0 53 -41 88q-37 32 -178 76q-143 46 -205 123t-62 190q0 124 97 203q96 78 245 78q89 0 277 -29v-242h-68l-31 111q-30 30 -79 47
q-52 18 -99 18q-70 0 -104 -30q-35 -30 -35 -80q0 -52 43 -86q42 -33 178 -74q147 -48 207 -119q62 -74 62 -184zM66 1118v33l217 293h213l217 -293v-33h-76l-248 162l-248 -162h-75z" />
    <glyph glyph-name="Scedilla" unicode="&#x15e;" horiz-adv-x="1138" 
d="M109 412l84 2l45 -215q41 -46 129 -82q82 -33 176 -33q286 0 286 235q0 73 -55 125q-56 53 -172 93q-182 62 -248 94q-79 39 -129 86q-52 49 -82 117t-30 165q0 177 120 269q121 92 351 92q171 0 374 -43v-320h-90l-45 185q-101 73 -237 73q-127 0 -189 -45
q-65 -47 -65 -141q0 -69 55 -115q56 -47 172 -84q231 -77 315 -131q86 -56 132 -137q45 -80 45 -192q0 -427 -504 -430q-114 0 -234 18q-116 17 -204 53v361zM514 -420v-2q-87 0 -160 31v90q70 -18 135 -18q93 0 93 86q0 42 -31 67t-100 31l51 194h110l-22 -110
q184 -27 184 -168q0 -94 -72 -148q-71 -53 -188 -53z" />
    <glyph glyph-name="scedilla" unicode="&#x15f;" horiz-adv-x="796" 
d="M748 299h-9q0 -157 -96 -238q-94 -79 -281 -79q-69 0 -167 16q-86 14 -140 35v256h66l39 -131q34 -34 92 -58t117 -24q86 0 129 37t43 96q0 53 -41 88q-37 32 -178 76q-143 46 -205 123t-62 190q0 124 97 203q96 78 245 78q89 0 277 -29v-242h-68l-31 111q-30 30 -79 47
q-52 18 -99 18q-70 0 -104 -30q-35 -30 -35 -80q0 -52 43 -86q42 -33 178 -74q147 -48 207 -119q62 -74 62 -184zM340 -422v-2q-87 0 -160 31v90q74 -19 135 -19q93 0 93 86q0 43 -31 68t-101 31l52 194h110l-22 -110q184 -27 184 -168q0 -94 -72 -148q-71 -53 -188 -53z
" />
    <glyph glyph-name="Scaron" unicode="&#x160;" horiz-adv-x="1138" 
d="M109 412l84 2l45 -215q41 -46 129 -82q82 -33 176 -33q286 0 286 235q0 73 -55 125q-56 53 -172 93q-182 62 -248 94q-79 39 -129 86q-52 49 -82 117t-30 165q0 177 120 269q121 92 351 92q171 0 374 -43v-320h-90l-45 185q-101 73 -237 73q-127 0 -189 -45
q-65 -47 -65 -141q0 -69 55 -115q56 -47 172 -84q231 -77 315 -131q86 -56 132 -137q45 -80 45 -192q0 -427 -504 -430q-114 0 -234 18q-116 17 -204 53v361zM905 1780v-33l-217 -293h-213l-217 293v33h76l248 -162l247 162h76z" />
    <glyph glyph-name="scaron" unicode="&#x161;" horiz-adv-x="796" 
d="M748 299h-9q0 -157 -96 -238q-94 -79 -281 -79q-69 0 -167 16q-86 14 -140 35v256h66l39 -131q34 -34 92 -58t117 -24q86 0 129 37t43 96q0 53 -41 88q-37 32 -178 76q-143 46 -205 123t-62 190q0 124 97 203q96 78 245 78q89 0 277 -29v-242h-68l-31 111q-30 30 -79 47
q-52 18 -99 18q-70 0 -104 -30q-35 -30 -35 -80q0 -52 43 -86q42 -33 178 -74q147 -48 207 -119q62 -74 62 -184zM719 1444v-33l-217 -293h-213l-217 293v33h75l248 -162l248 162h76z" />
    <glyph glyph-name="uni0162" unicode="&#x162;" horiz-adv-x="1363" 
d="M309 0l-2 74l213 26v1135h-51q-231 0 -322 -21l-26 -247h-90v374h1302v-374h-92l-27 247q-87 19 -325 19h-49v-1133l213 -26v-74h-744zM641 -422v-2q-87 0 -160 31v90q74 -19 135 -19q93 0 93 86q0 43 -31 68t-100 31l51 194h110l-22 -110q184 -27 184 -168
q0 -94 -72 -148q-71 -53 -188 -53z" />
    <glyph glyph-name="tcommaaccent" unicode="&#x163;" horiz-adv-x="681" 
d="M438 -20v2q-136 0 -209 61t-73 176v619h-123v65l145 39l117 213h149v-213h199v-104h-199v-600q0 -62 29 -99q26 -33 72 -33q42 0 129 17v-86q-29 -20 -105 -39q-73 -18 -131 -18zM362 -420v-2q-86 0 -159 31v90q71 -18 135 -18q92 0 92 86q0 42 -31 67t-100 31l51 194
h111l-23 -110q185 -27 185 -168q0 -94 -72 -148q-71 -53 -189 -53z" />
    <glyph glyph-name="Tcaron" unicode="&#x164;" horiz-adv-x="1363" 
d="M309 0l-2 74l213 26v1135h-51q-231 0 -322 -21l-26 -247h-90v374h1302v-374h-92l-27 247q-87 19 -325 19h-49v-1133l213 -26v-74h-744zM1006 1778v-33l-218 -293h-213l-217 293v33h76l248 -162l248 162h76z" />
    <glyph glyph-name="tcaron" unicode="&#x165;" horiz-adv-x="1064" 
d="M438 -20v2q-136 0 -209 61t-73 176v619h-123v65l145 39l117 213h149v-213h199v-104h-199v-600q0 -62 29 -99q26 -33 72 -33q42 0 129 17v-86q-29 -20 -105 -39q-73 -18 -131 -18zM1047 1266l-3 -4q0 -131 -90 -224t-264 -139v80q80 24 129 70t49 94q0 23 -14 37t-51 32
q-69 35 -66 105q0 57 39 86q42 31 101 31q72 0 120 -45q50 -47 50 -123z" />
    <glyph glyph-name="Tbar" unicode="&#x166;" horiz-adv-x="1363" 
d="M309 0l-2 74l213 26v508h-280v123h280v504h-51q-231 0 -322 -21l-26 -247h-90v374h1302v-374h-92l-27 247q-87 19 -325 19h-49v-502h280v-123h-280v-508l213 -26v-74h-744z" />
    <glyph glyph-name="tbar" unicode="&#x167;" horiz-adv-x="681" 
d="M33 582l123 2v254h-123v65l145 39l117 213h149v-213h199v-104h-199v-254h199v-105h-199v-241q0 -62 29 -99q26 -33 72 -33q42 0 129 17v-86q-29 -20 -105 -39q-73 -18 -131 -18q-136 0 -209 61t-73 176v260h-123v105z" />
    <glyph glyph-name="Utilde" unicode="&#x168;" horiz-adv-x="1478" 
d="M838 123q149 0 233 84q82 82 82 246v788l-178 27v73h455v-73l-152 -27v-780q0 -232 -135 -355q-134 -122 -383 -122q-269 0 -412 125t-143 362v772l-152 27v73h639v-73l-172 -27v-786q0 -162 80 -248t238 -86zM905 1454v-4q-86 0 -196 88q-57 45 -93 45q-34 0 -47 -22
q-13 -23 -22 -93h-105q9 153 66 222q55 67 151 67q48 0 89 -18q36 -16 110 -68q60 -45 88 -45q19 0 31 6q11 6 18 23q8 19 19 86h104q-9 -152 -61 -219q-53 -68 -152 -68z" />
    <glyph glyph-name="utilde" unicode="&#x169;" horiz-adv-x="1138" 
d="M705 82l-72 -37q-141 -72 -252 -72q-260 0 -260 277v598l-94 24v66h383v-649q0 -84 36 -129q38 -47 103 -47q78 0 153 34v703l-86 24v66h375v-850l92 -24v-66h-364zM682 1118v-4q-87 0 -197 88q-57 45 -92 45q-34 0 -47 -22q-13 -23 -22 -92h-105q9 152 66 221
q55 67 151 67q48 0 88 -18q39 -17 111 -68q60 -45 88 -45q19 0 31 6q11 6 18 23q8 19 19 86h104q-9 -152 -61 -219q-53 -68 -152 -68z" />
    <glyph glyph-name="Umacron" unicode="&#x16a;" horiz-adv-x="1478" 
d="M838 123q149 0 233 84q82 82 82 246v788l-178 27v73h455v-73l-152 -27v-780q0 -232 -135 -355q-134 -122 -383 -122q-269 0 -412 125t-143 362v772l-152 27v73h639v-73l-172 -27v-786q0 -162 80 -248t238 -86zM475 1454v152h629v-152h-629z" />
    <glyph glyph-name="umacron" unicode="&#x16b;" horiz-adv-x="1138" 
d="M705 82l-72 -37q-141 -72 -252 -72q-260 0 -260 277v598l-94 24v66h383v-649q0 -84 36 -129q38 -47 103 -47q78 0 153 34v703l-86 24v66h375v-850l92 -24v-66h-364zM240 1118v152h628v-152h-628z" />
    <glyph glyph-name="Ubreve" unicode="&#x16c;" horiz-adv-x="1478" 
d="M838 123q149 0 233 84q82 82 82 246v788l-178 27v73h455v-73l-152 -27v-780q0 -232 -135 -355q-134 -122 -383 -122q-269 0 -412 125t-143 362v772l-152 27v73h639v-73l-172 -27v-786q0 -162 80 -248t238 -86zM764 1454l-2 -6q-141 0 -221 86q-79 85 -82 240h100
q15 -82 68 -117q50 -33 135 -33q86 0 133 35t68 117h100q-3 -158 -82 -240t-217 -82z" />
    <glyph glyph-name="ubreve" unicode="&#x16d;" horiz-adv-x="1138" 
d="M705 82l-72 -37q-141 -72 -252 -72q-260 0 -260 277v598l-94 24v66h383v-649q0 -84 36 -129q38 -47 103 -47q78 0 153 34v703l-86 24v66h375v-850l92 -24v-66h-364zM555 1118l-2 -6q-141 0 -221 86q-79 85 -82 240h100q15 -82 68 -117q50 -33 135 -33q86 0 133 35t68 117
h100q-3 -158 -82 -240t-217 -82z" />
    <glyph glyph-name="Uring" unicode="&#x16e;" horiz-adv-x="1478" 
d="M838 123q149 0 233 84q82 82 82 246v788l-178 27v73h455v-73l-152 -27v-780q0 -232 -135 -355q-134 -122 -383 -122q-269 0 -412 125t-143 362v772l-152 27v73h639v-73l-172 -27v-786q0 -162 80 -248t238 -86zM805 1393l-2 -4q-87 0 -148 61t-61 152q0 90 61 151
q62 62 150 62q87 0 149 -62t62 -149q0 -88 -62 -150q-61 -61 -149 -61zM803 1700q-38 0 -70 -29q-31 -28 -31 -67t31 -70t70 -31q38 0 69 31t31 70t-31 67q-32 29 -69 29z" />
    <glyph glyph-name="uring" unicode="&#x16f;" horiz-adv-x="1138" 
d="M705 82l-72 -37q-141 -72 -252 -72q-260 0 -260 277v598l-94 24v66h383v-649q0 -84 36 -129q38 -47 103 -47q78 0 153 34v703l-86 24v66h375v-850l92 -24v-66h-364zM555 1057l-2 -4q-86 0 -147 61q-62 62 -62 152q0 89 62 151t149 62q88 0 150 -62q61 -61 61 -149
q0 -89 -61 -150t-150 -61zM553 1364q-38 0 -70 -29q-30 -27 -30 -67t30 -70q31 -31 70 -31t70 31q30 30 30 70t-30 67q-32 29 -70 29z" />
    <glyph glyph-name="Uhungarumlaut" unicode="&#x170;" horiz-adv-x="1478" 
d="M838 123q149 0 233 84q82 82 82 246v788l-178 27v73h455v-73l-152 -27v-780q0 -232 -135 -355q-134 -122 -383 -122q-269 0 -412 125t-143 362v772l-152 27v73h639v-73l-172 -27v-786q0 -162 80 -248t238 -86zM473 1452v33l137 293h252v-37l-293 -289h-96zM823 1452v33
l138 293h251v-37l-292 -289h-97z" />
    <glyph glyph-name="uhungarumlaut" unicode="&#x171;" horiz-adv-x="1138" 
d="M705 82l-72 -37q-141 -72 -252 -72q-260 0 -260 277v598l-94 24v66h383v-649q0 -84 36 -129q38 -47 103 -47q78 0 153 34v703l-86 24v66h375v-850l92 -24v-66h-364zM246 1116v33l137 293h252v-37l-293 -289h-96zM596 1116v33l137 293h252v-37l-293 -289h-96z" />
    <glyph glyph-name="Uogonek" unicode="&#x172;" horiz-adv-x="1478" 
d="M838 123q149 0 233 84q82 82 82 246v788l-178 27v73h455v-73l-152 -27v-780q0 -232 -135 -355q-134 -122 -383 -122q-269 0 -412 125t-143 362v772l-152 27v73h639v-73l-172 -27v-786q0 -162 80 -248t238 -86zM905 -430h2q-113 0 -174 55t-61 158q0 70 37 131
q35 58 96 100h127q-74 -109 -74 -215q0 -56 29 -88q27 -30 84 -30q56 0 135 28v-86q-89 -53 -201 -53z" />
    <glyph glyph-name="uogonek" unicode="&#x173;" horiz-adv-x="1138" 
d="M705 82l-72 -37q-141 -72 -252 -72q-260 0 -260 277v598l-94 24v66h383v-649q0 -84 36 -129q38 -47 103 -47q78 0 153 34v703l-86 24v66h375v-850l92 -24v-66h-364zM840 -432h2q-113 0 -174 55q-62 56 -62 158q0 70 37 131q35 58 96 100h127q-73 -107 -73 -215
q0 -57 28 -88t84 -31q53 0 135 29v-86q-89 -53 -200 -53z" />
    <glyph glyph-name="Wcircumflex" unicode="&#x174;" horiz-adv-x="2048" 
d="M1501 -31h-123l-334 828l-331 -828h-123l-445 1272l-116 27v73h602v-73l-158 -27l287 -799l313 785h125l315 -783l238 797l-170 27v73h434v-73l-117 -27zM782 1452v33l217 293h213l218 -293v-33h-76l-248 162l-248 -162h-76z" />
    <glyph glyph-name="wcircumflex" unicode="&#x175;" horiz-adv-x="1478" 
d="M874 846l218 -535l182 539l-111 24v66h305v-66l-71 -20l-318 -874h-121l-215 528l-213 -528h-120l-334 870l-70 24v66h465v-66l-113 -26l203 -537l217 535h96zM471 1118v33l217 293h213l217 -293v-33h-76l-247 162l-248 -162h-76z" />
    <glyph glyph-name="Ycircumflex" unicode="&#x176;" horiz-adv-x="1478" 
d="M911 528v-428l213 -26v-74h-741v74l213 26v422l-410 719l-149 27v73h688v-73l-178 -27l305 -561l297 561l-166 27v73h457v-73l-142 -27zM428 1452v33l217 293h213l217 -293v-33h-76l-247 162l-248 -162h-76z" />
    <glyph glyph-name="ycircumflex" unicode="&#x177;" horiz-adv-x="1024" 
d="M463 -29l-375 877l-65 24v66h481v-66l-113 -26l221 -520l197 522l-111 24v66h308v-66l-68 -20l-371 -913q-66 -168 -112 -236q-50 -75 -107 -111q-56 -36 -135 -36q-83 0 -166 18v244h62l43 -127q30 -23 73 -23q39 0 68 19q30 20 53 53q27 39 49 84q36 75 68 147z
M197 1116v33l217 293h213l217 -293v-33h-76l-248 162l-248 -162h-75z" />
    <glyph glyph-name="Ydieresis" unicode="&#x178;" horiz-adv-x="1478" 
d="M911 528v-428l213 -26v-74h-741v74l213 26v422l-410 719l-149 27v73h688v-73l-178 -27l305 -561l297 561l-166 27v73h457v-73l-142 -27zM950 1464v2q-46 0 -84 35q-37 34 -37 86q0 50 37 84q38 35 84 35q51 0 84 -33q35 -35 35 -86q0 -48 -35 -86q-34 -37 -84 -37z
M614 1466h-2q-47 0 -84 37q-36 36 -36 84t36 84q37 37 86 37q50 0 84 -37q35 -38 35 -82q0 -48 -35 -86q-34 -37 -84 -37z" />
    <glyph glyph-name="Zacute" unicode="&#x179;" horiz-adv-x="1363" 
d="M98 115l742 1118h-240q-228 0 -319 -21l-31 -211h-90v338h1036v-106l-747 -1131h280q105 0 225 13q100 11 158 22l59 256h91l-27 -393h-1137v115zM532 1450v33l166 272h285v-37l-365 -268h-86z" />
    <glyph glyph-name="zacute" unicode="&#x17a;" horiz-adv-x="907" 
d="M41 0l-2 43l430 805h-107q-59 0 -106 -8q-51 -9 -74 -25l-30 -156h-72v281h729v-49l-430 -801h149q60 0 121 12q60 12 90 35l54 217h71l-26 -354h-797zM309 1116v33l166 272h285v-37l-365 -268h-86z" />
    <glyph glyph-name="Zdotaccent" unicode="&#x17b;" horiz-adv-x="1363" 
d="M98 115l742 1118h-240q-228 0 -319 -21l-31 -211h-90v338h1036v-106l-747 -1131h280q105 0 225 13q100 11 158 22l59 256h91l-27 -393h-1137v115zM528 1599l-4 9q0 64 47 108q46 43 109 43q66 0 111 -45t45 -110t-43 -111q-42 -45 -109 -45q-65 0 -111 43q-45 42 -45 108
z" />
    <glyph glyph-name="zdotaccent" unicode="&#x17c;" horiz-adv-x="907" 
d="M41 0l-2 43l430 805h-107q-59 0 -106 -8q-51 -9 -74 -25l-30 -156h-72v281h729v-49l-430 -801h149q60 0 121 12q60 12 90 35l54 217h71l-26 -354h-797zM299 1266l-4 8q0 64 47 108q46 43 109 43q65 0 110 -45t45 -110t-43 -111q-42 -45 -108 -45q-65 0 -111 43
q-45 42 -45 109z" />
    <glyph glyph-name="Zcaron" unicode="&#x17d;" horiz-adv-x="1363" 
d="M98 115l742 1118h-240q-228 0 -319 -21l-31 -211h-90v338h1036v-106l-747 -1131h280q105 0 225 13q100 11 158 22l59 256h91l-27 -393h-1137v115zM1014 1776v-33l-217 -293h-213l-217 293v33h75l248 -162l248 162h76z" />
    <glyph glyph-name="zcaron" unicode="&#x17e;" horiz-adv-x="907" 
d="M41 0l-2 43l430 805h-107q-59 0 -106 -8q-51 -9 -74 -25l-30 -156h-72v281h729v-49l-430 -801h149q60 0 121 12q60 12 90 35l54 217h71l-26 -354h-797zM778 1442v-33l-217 -293h-213l-217 293v33h76l248 -162l247 162h76z" />
    <glyph glyph-name="longs" unicode="&#x17f;" horiz-adv-x="567" 
d="M109 1044q0 194 98 295q100 103 280 103q98 0 166 -19v-225h-63l-29 111q-25 25 -63 22q-101 0 -101 -254v-987l154 -24v-66h-545v66l103 24v954z" />
    <glyph glyph-name="uni0180" unicode="&#x180;" horiz-adv-x="1138" 
d="M12 1102l-2 104h111v127l-96 23v65h385v-215h290v-104h-290v-27q0 -73 -11 -188q39 33 115 55q81 23 145 23q207 0 302 -111q94 -110 94 -356q0 -242 -121 -381q-119 -137 -338 -137q-165 0 -473 67v1055h-111zM762 498h-4q0 187 -45 270q-47 86 -150 86q-43 0 -82 -8
q-44 -9 -71 -27v-719q64 -15 155 -12q98 0 148 96q49 94 49 314z" />
    <glyph glyph-name="uni0181" unicode="&#x181;" horiz-adv-x="1544" 
d="M1042 1010h-4q0 118 -49 170q-50 53 -166 53h-139v-467h147q108 0 160 55q51 54 51 189zM1141 391q0 132 -68 197t-217 65h-174v-542q168 -7 227 -7q114 0 174 72q58 70 58 215zM334 1231l-2 -8q-75 0 -129 -23q-50 -21 -74 -80l-51 -121h-86l6 287q94 49 289 49h555
q266 0 393 -71t127 -232q0 -121 -74 -207q-73 -85 -198 -112q187 -18 282 -101q96 -84 96 -223q0 -194 -143 -295q-141 -100 -412 -100l-456 6h-262v74l174 26v1131h-35z" />
    <glyph glyph-name="uni0182" unicode="&#x182;" horiz-adv-x="1353" 
d="M692 0l-657 2v74l170 24v1143l-172 27v73h1116l12 -329h-90l-55 203q-97 20 -314 20h-182v-471h170q278 0 418 -98q141 -99 141 -289q0 -379 -557 -379zM918 381h-5q0 132 -71 203t-197 71h-127v-549h137q126 0 195 72q68 71 68 203z" />
    <glyph glyph-name="uni0183" unicode="&#x183;" horiz-adv-x="1138" 
d="M764 498h-4q0 187 -45 270q-47 86 -150 86q-43 0 -82 -8q-44 -9 -71 -27v-719q64 -15 155 -12q98 0 148 96q49 94 49 314zM1053 496l-2 2q0 -242 -121 -381q-119 -137 -338 -137q-165 0 -473 67v1374h741l12 -268h-75l-56 145q-46 9 -127 15q-80 6 -120 6h-86v-164
q0 -7 -5 -154q-3 -89 -6 -116q39 33 115 55q80 23 145 23q206 0 301 -111q95 -112 95 -356z" />
    <glyph glyph-name="uni0184" unicode="&#x184;" horiz-adv-x="1353" 
d="M930 379h-4q0 131 -72 203q-71 71 -197 71h-137v-549h148q125 0 194 72q68 71 68 203zM434 1341l82 2v-577h180q278 0 418 -98q141 -99 141 -289q0 -379 -557 -379h-665v74l170 24v797l-172 145v74z" />
    <glyph glyph-name="uni0185" unicode="&#x185;" horiz-adv-x="1138" 
d="M764 498h-4q0 187 -45 270q-47 86 -150 86q-43 0 -82 -8q-44 -9 -71 -27v-719q64 -15 155 -12q98 0 148 96q49 94 49 314zM119 934l-125 156v63l346 268h66v-346q0 -73 -11 -188q39 33 115 55q80 23 145 23q207 0 301 -111q95 -112 95 -356q0 -242 -121 -381
q-119 -137 -338 -137q-165 0 -473 67v887z" />
    <glyph glyph-name="uni0186" unicode="&#x186;" horiz-adv-x="1478" 
d="M664 1356l-5 -6q339 0 527 -179t188 -493q0 -345 -180 -522q-182 -179 -535 -179q-232 0 -483 68l-6 322h90l29 -195q133 -89 307 -86q231 0 338 143q108 144 108 449q0 282 -110 428q-111 147 -326 147q-114 0 -196 -30q-83 -30 -134 -72l-30 -219h-92l6 340
q101 40 239 61q151 23 265 23z" />
    <glyph glyph-name="uni0187" unicode="&#x187;" horiz-adv-x="1478" 
d="M1589 1368l-41 115q-21 25 -51 35q-35 12 -74 12q-135 0 -135 -191l6 -374h-90l-26 194q-134 90 -308 90q-231 0 -338 -143q-106 -141 -106 -449q0 -279 111 -426t325 -147q112 0 197 31q83 30 133 71l33 220h90l-6 -340q-94 -37 -234 -60q-144 -24 -266 -24
q-339 0 -526 178q-189 180 -189 495q0 346 180 523q181 178 535 178q171 0 362 -37q3 151 74 237t209 86q126 0 209 -30v-244h-74z" />
    <glyph glyph-name="uni0188" unicode="&#x188;" horiz-adv-x="907" 
d="M1139 969l-25 135q-20 24 -53 35q-35 12 -78 12q-139 0 -139 -188v-316h-72l-43 166q-40 28 -67 35q-38 10 -87 10q-56 0 -106 -47q-49 -46 -76 -131q-26 -82 -26 -205q0 -202 61 -287q62 -86 201 -86q129 0 235 29v-76q-46 -37 -125 -55t-164 -18q-251 0 -374 120
t-123 369q0 156 55 266q56 112 160 170q108 60 244 60q82 0 184 -15q9 141 80 215t196 74q122 0 207 -29v-243h-65z" />
    <glyph glyph-name="uni0189" unicode="&#x189;" horiz-adv-x="1478" 
d="M694 1341l4 -4q361 0 533 -163t172 -498q0 -343 -166 -512q-165 -168 -500 -168l-448 4h-209v74l149 26v508h-178v123h178v510l-172 27v73h637zM1073 666h2q0 294 -106 426q-108 135 -344 135h-74v-500h256v-123h-256v-493q95 -9 172 -9q128 0 205 56q75 54 110 176
t35 332z" />
    <glyph glyph-name="uni018A" unicode="&#x18a;" horiz-adv-x="1671" 
d="M1255 670h2q0 294 -106 426q-108 135 -344 135h-76v-1116q95 -9 172 -9q130 0 207 56q76 55 111 176q34 118 34 332zM1589 678l6 -6q0 -344 -165 -512t-500 -168l-451 4h-229v74l172 26v1131h-78q-75 0 -129 -23q-50 -21 -74 -80l-51 -120h-86l6 286q94 49 289 49h586
q360 0 532 -163t172 -498z" />
    <glyph glyph-name="uni018B" unicode="&#x18b;" horiz-adv-x="1353" 
d="M1298 0l-661 -2q-278 0 -416.5 95t-136.5 284q0 190 141 289q140 98 416 98h170v471h-182q-212 0 -314 -21l-55 -202h-90l12 329h1116v-73l-172 -27v-1143l172 -24v-74zM807 102l-4 545h-127q-128 0 -197 -69t-69 -203q0 -133 67 -203t195 -70h135z" />
    <glyph glyph-name="uni018C" unicode="&#x18c;" horiz-adv-x="1138" 
d="M1116 0h-366l-21 53q-53 -36 -86 -49q-30 -12 -68 -18q-37 -6 -81 -6q-208 0 -310 120q-100 118 -100 369q0 242 109 369t317 127q108 0 219 -27q-7 38 -4 76v223h-193q-76 0 -190 -18l-43 -166h-74v288h789v-1251l102 -24v-66zM373 475l-2 -2q0 -185 47 -285
q46 -98 135 -98q81 0 168 43v709q-73 20 -160 20q-90 0 -139 -98t-49 -289z" />
    <glyph glyph-name="uni018D" unicode="&#x18d;" horiz-adv-x="1062" 
d="M854 -178l2 -19q0 -118 -104 -182q-106 -65 -285 -65q-130 0 -256 30v232h65l35 -123q25 -18 62 -29q41 -12 82 -12q60 0 100 29q37 27 37 73q0 55 -45 103q-44 47 -203 151q-135 89 -209 215q-74 127 -74 287q0 212 129 332q130 121 353 121q196 0 313 -117t117 -316
q0 -298 -311 -436q192 -131 192 -274zM522 877l-2 -5q-77 0 -123 -75q-45 -74 -45 -230q0 -229 201 -383l20 -16q52 46 86 147q33 98 33 228q0 334 -170 334z" />
    <glyph glyph-name="uni018E" unicode="&#x18e;" horiz-adv-x="1363" 
d="M1331 0h-1206l-21 375h93l57 -248q85 -16 338 -16h252v516h-350l-31 -152h-90v412h90l31 -148h350v492h-207q-222 0 -326 -14l-30 -218h-93v342h1143v-73l-172 -27v-1141l172 -26v-74z" />
    <glyph glyph-name="uni018F" unicode="&#x18f;" horiz-adv-x="1511" 
d="M725 1255h2q-213 0 -356 -94l-29 -194h-88l4 321q251 68 483 68q355 0 533 -172t178 -512q0 -341 -178 -516q-177 -174 -518 -174q-339 0 -518 176t-179 516l2 74h1059q-9 273 -104 391q-94 116 -291 116zM760 80h2q185 0 270 131q87 134 90 424h-729q3 -296 92 -426
q89 -129 275 -129z" />
    <glyph glyph-name="uni0190" unicode="&#x190;" horiz-adv-x="1079" 
d="M74 365l-4 2q0 294 348 338q-138 21 -217 106q-80 86 -80 217q0 330 489 330q186 0 357 -43v-305h-86l-43 194q-39 24 -88 37q-52 14 -109 14q-207 0 -207 -239q0 -119 55 -180q56 -62 144 -68l117 -6v-123l-121 -6q-242 -15 -242 -258q0 -296 268 -293q43 0 105 12
q52 10 100 35l53 215h93l-13 -324q-164 -40 -370 -40q-260 0 -404 102q-145 103 -145 283z" />
    <glyph glyph-name="uni0191" unicode="&#x191;" horiz-adv-x="1249" 
d="M557 571l-4 -569q0 -218 -119 -334q-120 -117 -344 -117q-76 0 -147 9q-72 9 -115 24v303h88l31 -178q21 -24 55 -35q38 -12 78 -12q71 0 117 49q45 48 45 144v1386l-172 27v73h1118v-360h-94l-31 236q-60 7 -162 10q-152 4 -178 4h-166v-549h328l30 170h89v-453h-89
l-30 172h-328z" />
    <glyph glyph-name="florin" unicode="&#x192;" horiz-adv-x="1024" 
d="M180 -285l139 977h-169l14 70l170 35l33 235q21 156 118 242q98 88 240 88q114 0 195 -19v-225h-64l-29 115q-27 21 -63 18q-47 0 -74 -55q-27 -56 -45 -174l-31 -225h240l-16 -105h-240l-135 -977h-283z" />
    <glyph glyph-name="uni0193" unicode="&#x193;" horiz-adv-x="1591" 
d="M1655 1368l-35 113q-21 25 -51 35q-35 12 -74 12q-135 0 -135 -191v-379h-90l-25 175q-84 55 -174 84q-95 30 -197 30q-230 0 -339 -145q-107 -143 -107 -449q0 -285 113 -428q115 -145 325 -145q114 0 221 35v387l-172 26v74h617v-74l-129 -26v-436q-135 -43 -289 -66
q-170 -25 -295 -25q-216 0 -381 80q-162 79 -252 234q-88 152 -88 362q0 339 193 520q195 183 549 183q99 0 178 -8q91 -9 219 -39q0 163 74 249t211 86q128 0 207 -30v-244h-74z" />
    <glyph glyph-name="uni0194" unicode="&#x194;" horiz-adv-x="1478" 
d="M23 1268v71h583v-73l-139 -27l348 -856l381 856l-135 27v73h395v-73l-127 -27l-446 -1022q182 -460 209 -647l-508 -14l-86 32q43 158 149 412l-514 1241zM647 -340l113 8q-10 70 -45 166q-57 -127 -68 -174z" />
    <glyph glyph-name="uni0195" unicode="&#x195;" horiz-adv-x="1599" 
d="M1139 -20v-9q-210 0 -314 78q-100 75 -100 232v362q0 83 -37 129q-38 47 -100 47q-76 0 -154 -35v-702l86 -25v-65h-467v65l92 25v1241l-96 25v65h385v-407q0 -66 -6 -154l70 35q142 71 254 71q260 0 260 -276v-389q0 -124 28 -182q27 -56 97 -56q60 0 90 64t30 178v551
l-108 24v66h375v-653q0 -149 -97 -228q-95 -77 -288 -77z" />
    <glyph glyph-name="uni0196" unicode="&#x196;" horiz-adv-x="626" 
d="M393 -20l2 -3q-124 0 -190 60q-64 58 -64 188v1104l-96 25v65h385v-1196q0 -66 25 -94q24 -27 67 -27q36 0 86 13v-82q-38 -23 -98 -37q-69 -16 -117 -16z" />
    <glyph glyph-name="uni0197" unicode="&#x197;" horiz-adv-x="796" 
d="M555 653v-553l172 -26v-74h-657v74l172 26v553h-172v123h172v465l-172 27v73h657v-73l-172 -27v-465h172v-123h-172z" />
    <glyph glyph-name="uni0198" unicode="&#x198;" horiz-adv-x="1591" 
d="M1577 0h-440l-500 645l-117 -98v-447l193 -26v-74h-680v74l172 26v865q0 201 104 299t303 98q88 0 183 -25v-260h-80l-31 150q-24 24 -61 24q-101 0 -101 -256v-299l611 545l-123 27v73h458v-73l-163 -27l-443 -389l590 -752l125 -26v-74z" />
    <glyph glyph-name="uni0199" unicode="&#x199;" horiz-adv-x="1138" 
d="M684 0l-2 66l55 24l-188 330l-115 -80v-250l92 -24v-66h-471v66l90 24v954q0 193 99 295q100 103 282 103q98 0 166 -19v-225h-63l-31 111q-25 25 -61 22q-101 0 -101 -254v-626l367 401l-101 22v66h359v-66l-109 -22l-223 -236l324 -526l84 -24v-66h-453z" />
    <glyph glyph-name="uni019A" unicode="&#x19a;" horiz-adv-x="567" 
d="M430 664v-574l105 -24v-66h-494v66l100 24v574h-118v104h118v563l-96 25v65h385v-653h137v-104h-137z" />
    <glyph glyph-name="uni019B" unicode="&#x19b;" horiz-adv-x="1005" 
d="M1006 0l-201 -2l-217 657q-17 -52 -49 -129q-35 -82 -228 -528h-293v49l461 936l-16 53l-348 -336v144l309 299q-71 170 -168 170q-31 0 -61 -23l-43 -96h-60v219q19 3 41 10q29 10 37 11q18 3 39 6q14 2 49 2q96 0 154 -43t110 -156l197 191v-146l-154 -147l338 -983
q21 -70 103 -92v-66z" />
    <glyph glyph-name="uni019C" unicode="&#x19c;" horiz-adv-x="1925" 
d="M1376 80v2q-83 -47 -159 -72q-86 -28 -142 -28q-65 0 -121 24q-54 23 -82 84q-70 -40 -174 -76q-92 -32 -163 -32q-166 0 -252 71t-86 203v985l-172 27v73h587v-73l-100 -27v-948q0 -172 113 -172q56 0 178 35q-17 59 -17 116v967l-102 27v73h516v-73l-98 -27v-948
q0 -82 31 -127q30 -43 90 -43q32 0 73 8q49 10 78 21v1091l-100 27v73h547v-73l-129 -27l-2 -1141l129 -26v-74h-428z" />
    <glyph glyph-name="uni019D" unicode="&#x19d;" horiz-adv-x="1478" 
d="M1280 1241l-4 -1245h-117l-827 1077v-1216q0 -152 -76 -228q-75 -75 -236 -75q-41 0 -96 10q-46 8 -82 24v301h90l29 -178q16 -23 47 -35q30 -12 66 -12q68 0 102 49q35 50 35 135v1393l-172 27v73h459l657 -858v758l-180 27v73h477v-73z" />
    <glyph glyph-name="uni019E" unicode="&#x19e;" horiz-adv-x="1138" 
d="M434 858l70 37q141 72 252 72q260 0 260 -277v-1034l94 -25v-65h-467v65l84 25v995q0 83 -37 129q-38 47 -100 47q-79 0 -154 -34v-703l86 -24v-66h-467v66l92 24v760l-92 24v66h365z" />
    <glyph glyph-name="uni019F" unicode="&#x19f;" horiz-adv-x="1591" 
d="M100 672v-4q0 684 697 684q345 0 520 -172q176 -173 176 -510q0 -341 -178 -516q-177 -174 -518 -174q-339 0 -518 176t-179 516zM797 76q184 0 272 131q89 133 92 424h-729q3 -296 92 -426q88 -129 273 -129zM797 1251h-4q-181 0 -267 -121q-87 -122 -96 -387h727
q-9 268 -94 387q-86 121 -266 121z" />
    <glyph glyph-name="Ohorn" unicode="&#x1a0;" horiz-adv-x="1591" 
d="M100 672l4 -2q0 684 697 684q425 0 596 -269q73 46 73 101q0 20 -14 31q-19 16 -55 34q-68 38 -68 105q0 56 37 90q38 35 96 35q72 0 115 -49t43 -127q0 -88 -47 -168q-47 -81 -141 -136q57 -134 57 -331q0 -341 -178 -516q-177 -174 -518 -174q-339 0 -518 176t-179 516
zM436 670v-2q0 -319 86 -455q86 -135 277 -135q188 0 276 137t88 455q0 317 -88 448q-89 133 -276 133q-191 0 -277 -133t-86 -448z" />
    <glyph glyph-name="ohorn" unicode="&#x1a1;" horiz-adv-x="1132" 
d="M1120 1001l2 -8q0 -95 -49 -174q-49 -78 -151 -137q28 -92 28 -215q0 -255 -108 -375q-109 -121 -332 -121q-214 0 -322 123q-106 121 -106 373q0 249 108 369t330 120q264 0 369 -184q78 47 78 105q0 17 -15 32q-18 18 -55 37q-68 38 -68 103q0 55 37 92t97 37
q70 0 114 -50q43 -49 43 -127zM655 467v-2q0 226 -32 305q-35 86 -113 86q-77 0 -107 -80t-30 -307q0 -231 30 -313t107 -82q78 0 113 86q32 79 32 307z" />
    <glyph glyph-name="uni01A2" unicode="&#x1a2;" horiz-adv-x="2162" 
d="M2095 -442l-659 -2v73l172 27v1573h-242v-1161q-307 -91 -549 -91q-353 0 -547 179t-194 497q0 353 176 529q174 174 516 174l410 -15h745v-1683l172 -27v-73zM821 1253h2q-211 0 -313 -147q-100 -144 -100 -451q0 -284 98 -430q99 -147 291 -147q72 0 145 20
q76 21 111 45v1086q-150 24 -234 24z" />
    <glyph glyph-name="uni01A3" unicode="&#x1a3;" horiz-adv-x="1576" 
d="M987 -436l-2 65l129 25v1182h-170v-361q0 -252 -106 -373q-107 -122 -332 -122q-212 0 -320 120q-106 118 -106 375q0 249 108 369q109 121 326 121q36 0 172 -13q126 -12 178 -12h541v-1286l104 -25v-65h-522zM504 80q83 0 117 88q32 82 32 307v361q-33 10 -75 18
q-52 10 -74 10q-75 0 -105 -82t-30 -307q0 -229 30 -311q31 -84 105 -84z" />
    <glyph glyph-name="uni01A4" unicode="&#x1a4;" horiz-adv-x="1421" 
d="M1038 944l2 -2q0 158 -59 223q-58 64 -209 64h-80v-594h84q140 0 201 70t61 239zM1364 944l2 -2q0 -420 -492 -420h-180v-426l224 -26v-74h-699v74l160 26v1131h-37q-75 0 -129 -23q-50 -21 -74 -80l-51 -120h-86l6 286q94 49 289 49h500q286 0 426 -94q141 -95 141 -301
z" />
    <glyph glyph-name="uni01A5" unicode="&#x1a5;" horiz-adv-x="1138" 
d="M674 1198h-68l-28 111q-25 25 -64 22q-100 0 -100 -254v-180q106 68 252 68q197 0 292 -115q97 -117 97 -363q0 -244 -111 -376q-110 -131 -317 -131q-111 0 -215 26q6 -64 6 -147v-205l137 -25v-65h-528v65l102 25v1390q0 194 98 295q100 103 281 103q95 0 166 -19v-225
zM760 479h-2q0 375 -174 375q-95 0 -172 -39v-709q79 -20 172 -20q176 0 176 393z" />
    <glyph glyph-name="uni01A6" unicode="&#x1a6;" horiz-adv-x="1249" 
d="M872 778h-2q0 151 -61 209q-63 60 -225 60h-62v-553h66q156 0 219 63q65 65 65 221zM1008 -225l-402 606h-86v-283l172 -26v-74h-647v74l160 26v1141l-172 27v73h659v-73l-172 -27v-86h74q296 0 442 -90t146 -283q0 -288 -271 -368l385 -537l146 -27v-73h-434z" />
    <glyph glyph-name="uni01A7" unicode="&#x1a7;" horiz-adv-x="1138" 
d="M1030 51l-4 6q-82 -32 -209 -51q-120 -18 -229 -18q-504 0 -504 428q0 113 45 190q47 80 129 135q85 57 317 133q118 41 173 87t55 110q0 89 -64 135q-65 47 -190 47q-137 0 -238 -73l-45 -185h-90v320q197 43 375 43q229 0 350 -92t121 -271q0 -98 -31 -168
q-30 -67 -82 -116q-50 -47 -129 -86q-72 -35 -245 -95q-118 -41 -173 -90t-55 -123q0 -235 287 -235q97 0 176 33q87 36 127 82l45 215h88v-361z" />
    <glyph glyph-name="uni01A8" unicode="&#x1a8;" horiz-adv-x="796" 
d="M49 299l-4 -4q0 111 61 184q60 71 207 119q141 45 181 76q43 34 43 86q0 53 -35 80q-36 28 -105 28q-45 0 -98 -18q-48 -16 -82 -47l-31 -111h-65v242q189 29 276 29q152 0 246 -76t94 -205q0 -114 -61 -190q-62 -77 -205 -123q-138 -45 -178 -76q-43 -34 -43 -88
q0 -57 43 -94t131 -37q62 0 117 24q53 23 90 60l39 131h65v-256q-61 -23 -143 -37q-83 -14 -166 -14q-187 0 -281 79q-96 81 -96 238z" />
    <glyph glyph-name="uni01A9" unicode="&#x1a9;" horiz-adv-x="1337" 
d="M774 817l-4 -102l-408 -455h285q116 0 275 6q151 6 200 13l35 186h84l-18 -465h-1157v102l479 531l-471 602v106h1083v-342h-90l-43 218q-106 14 -326 14h-237z" />
    <glyph glyph-name="uni01AA" unicode="&#x1aa;" horiz-adv-x="1048" 
d="M256 1010v-4q-86 0 -147 61q-62 62 -62 152q0 89 62 151t147 62q178 0 274 -158q97 -160 97 -461v-885q0 -124 30 -188q31 -66 86 -66q25 0 50 19l43 114h63v-225q-83 -18 -172 -18q-188 0 -289 104q-100 103 -100 293v1063q-38 -14 -82 -14zM256 1317v4q-40 0 -68 -31
t-28 -69q0 -39 28 -70t68 -31q39 0 70 31q30 30 30 70t-30 67q-32 29 -70 29z" />
    <glyph glyph-name="uni01AB" unicode="&#x1ab;" horiz-adv-x="681" 
d="M387 -436l2 -2q-89 0 -172 18v225h66l43 -114q25 -19 49 -19q52 0 80 66q28 67 28 188v54l-22 -3h-23q-135 0 -209 62q-73 61 -73 176v619h-123v65l145 39l117 213h149v-213h199v-104h-199v-601q0 -61 29 -98q26 -33 72 -33q42 0 129 17v-142q0 -198 -74 -307
q-72 -106 -213 -106z" />
    <glyph glyph-name="uni01AC" unicode="&#x1ac;" horiz-adv-x="1363" 
d="M1335 967h-92l-26 247q-87 19 -326 19h-49v-1133l213 -26v-74h-744v74l213 26v1133h-184q-77 0 -129 -25q-50 -24 -74 -82l-51 -120h-86l6 286q94 49 289 49h1040v-374z" />
    <glyph glyph-name="uni01AD" unicode="&#x1ad;" horiz-adv-x="681" 
d="M643 1167l-33 142q-25 25 -63 22q-101 0 -101 -254v-137h199v-104h-199v-600q0 -62 29 -99q26 -33 72 -33q42 0 129 17v-86q-29 -20 -105 -39q-78 -19 -131 -19q-135 0 -209 62q-73 61 -73 176v619h-123v65l123 33v110q0 194 98 295q100 103 281 103q57 0 104 -8
q55 -9 78 -21v-244h-76z" />
    <glyph glyph-name="uni01AE" unicode="&#x1ae;" horiz-adv-x="1363" 
d="M1335 967l-98 2l-27 248q-82 18 -325 18h-49v-1378q0 -96 45 -144q46 -49 116 -49q43 0 78 12q31 11 55 35l29 178h90v-303q-35 -10 -110 -20q-63 -8 -154 -8q-223 0 -342 116q-121 118 -121 336v1225h-51q-229 0 -321 -21l-27 -247h-90v374h1302v-374z" />
    <glyph glyph-name="Uhorn" unicode="&#x1af;" horiz-adv-x="1628" 
d="M1612 1307v-2q0 -128 -88 -222t-248 -141v-481q0 -232 -135 -355q-134 -122 -383 -122q-269 0 -412 125t-143 362v772l-152 27v73h639v-73l-172 -27v-786q0 -163 82 -248q83 -86 240 -86q149 0 233 84q82 82 82 246v788l-178 27v73h303v-299q91 30 135 68q43 37 43 78
q0 20 -14 31q-19 16 -55 34q-68 38 -68 105q0 56 37 90q38 35 96 35q72 0 115 -49t43 -127z" />
    <glyph glyph-name="uhorn" unicode="&#x1b0;" horiz-adv-x="1228" 
d="M1249 1001v-10q0 -108 -63 -192q-67 -89 -193 -140v-577l92 -25v-65h-364l-14 82l-68 -35q-141 -72 -252 -72q-260 0 -260 277v598l-94 24v66h383v-649q0 -83 37 -129q39 -48 102 -48q76 0 154 35v703l-86 24v66h374v-170q96 50 99 113q0 17 -15 32q-18 18 -55 37
q-68 38 -68 103q0 55 37 92t97 37q70 0 114 -50q43 -49 43 -127z" />
    <glyph glyph-name="uni01B1" unicode="&#x1b1;" horiz-adv-x="1638" 
d="M821 86l-2 -4q191 0 293 108t102 312q0 180 -75 280q-77 102 -217 123l-23 432h625l22 -385h-86l-59 129q-90 17 -258 17h-111l6 -107q244 -37 377 -164q131 -125 131 -325q0 -248 -190 -383t-537 -135q-345 0 -536 135t-191 383q0 200 131 325q133 127 377 164l4 107
h-108q-168 0 -258 -17l-62 -129h-86l25 385h624l-22 -432q-139 -21 -215 -123q-76 -101 -76 -280q0 -199 102 -307q103 -109 293 -109z" />
    <glyph glyph-name="uni01B2" unicode="&#x1b2;" horiz-adv-x="1333" 
d="M805 1087l-4 240q82 31 207 31q128 0 196 -80t68 -229v-592q0 -232 -135 -355q-134 -122 -383 -122q-270 0 -412 124q-143 125 -143 363v772l-152 27v73h639v-73l-172 -27v-786q0 -163 82 -248q83 -86 240 -86q149 0 233 84q82 82 82 246v608q0 92 -31 143q-30 49 -92 49
q-32 0 -67 -12q-31 -11 -52 -35l-28 -115h-76z" />
    <glyph glyph-name="uni01B3" unicode="&#x1b3;" horiz-adv-x="1617" 
d="M1585 1081l-74 -2l-34 135q-39 28 -86 25q-52 0 -91 -31q-33 -27 -73 -98l-316 -582v-428l213 -26v-74h-741v74l213 26v422l-410 719l-149 27v73h688v-73l-178 -27l305 -561l248 469q109 207 295 207q111 0 190 -31v-244z" />
    <glyph glyph-name="uni01B4" unicode="&#x1b4;" horiz-adv-x="1024" 
d="M1393 1159l-64 -4l-41 117q-28 22 -74 22q-40 0 -69 -20q-32 -22 -55 -64q-29 -52 -78 -176l-447 -1095q-69 -173 -116 -240q-48 -69 -105 -107q-53 -36 -131 -36q-83 0 -166 18v244h62l43 -127q30 -23 73 -23q39 0 68 19q30 20 53 53q29 42 47 84l68 147l-377 879
l-66 24v66h482v-66l-113 -26l221 -520l271 710q66 173 110 240q45 68 103 104q56 35 133 35q60 0 80 -2q39 -4 88 -14v-242z" />
    <glyph glyph-name="uni01B5" unicode="&#x1b5;" horiz-adv-x="1363" 
d="M1262 393l-27 -395h-1137v115l353 532h-277v121h356l310 467h-240q-228 0 -319 -21l-31 -211h-90v338h1036v-106l-307 -467h262v-121h-344l-358 -543h280q105 0 225 13q100 11 158 22l59 256h91z" />
    <glyph glyph-name="uni01B6" unicode="&#x1b6;" horiz-adv-x="907" 
d="M41 0l-2 43l207 387h-160v105h215l168 313h-107q-59 0 -106 -8q-51 -9 -74 -25l-30 -156h-72v281h729v-49l-191 -354h150v-105h-207l-182 -342h149q60 0 121 12q60 12 90 35l54 217h71l-26 -354h-797z" />
    <glyph glyph-name="uni01B7" unicode="&#x1b7;" horiz-adv-x="1189" 
d="M479 -442v-2q-248 0 -430 38l-4 357h92l45 -246q54 -23 129 -37q74 -14 142 -14q180 0 266 121t86 375q0 225 -105 333q-104 107 -346 107h-71v104l395 539h-119q-227 0 -319 -21l-31 -211h-88v338h893v-106l-436 -555q278 -41 409 -172q133 -133 133 -369
q0 -281 -168 -430t-473 -149z" />
    <glyph glyph-name="uni01B8" unicode="&#x1b8;" horiz-adv-x="1189" 
d="M713 -442v-2q-302 0 -473 151q-168 149 -168 430q0 236 133 369q131 131 405 172l-436 555v106h893v-338h-88l-31 211q-91 21 -319 21h-119l395 -539v-104h-71q-241 0 -345 -107t-104 -333q0 -254 86 -375q85 -119 266 -119q65 0 142 14t131 37l45 246h92l-4 -356
q-186 -39 -430 -39z" />
    <glyph glyph-name="uni01B9" unicode="&#x1b9;" horiz-adv-x="937" 
d="M588 -442h4q-252 0 -387 120t-135 338q0 348 354 406l-320 469v49h775v-281h-72l-31 156q-20 17 -69 25q-58 10 -111 10h-158l293 -451v-59h-94q-141 0 -209 -86t-68 -254q0 -167 72 -242q70 -73 209 -73q138 0 264 30v-75q-60 -42 -143 -62q-81 -20 -174 -20z" />
    <glyph glyph-name="uni01BA" unicode="&#x1ba;" horiz-adv-x="927" 
d="M541 -442l-4 -2q-147 0 -254 43t-162 116t-55 176q0 141 98 226q101 87 280 108q82 12 123 41q37 27 37 80q0 125 -270 125h-82v59l297 322h-170q-62 0 -109 -8q-52 -9 -71 -25l-31 -155h-74v280h801v-49l-342 -344q167 -30 233 -80q66 -51 66 -129q0 -54 -29 -98
q-26 -39 -84 -64q-60 -26 -174 -43q-132 -21 -190 -76t-58 -155q0 -221 265 -221q144 0 276 30v-75q-60 -42 -143 -62q-81 -20 -174 -20z" />
    <glyph glyph-name="uni01BB" unicode="&#x1bb;" horiz-adv-x="1024" 
d="M86 0l2 186l135 144q157 158 207 213q54 61 84 106h-375v123h443q41 106 41 240q0 107 -54 176q-52 67 -141 67q-60 0 -98 -12q-34 -11 -70 -39l-43 -194h-86v305q89 20 158 31q76 12 166 12q220 0 338 -92q116 -91 116 -260q0 -133 -55 -234h82v-123h-172
q-40 -43 -119 -112q-72 -63 -217 -181l-149 -131h657v-225h-850z" />
    <glyph glyph-name="uni01BC" unicode="&#x1bc;" horiz-adv-x="1032" 
d="M213 1241l-186 27v73h858v-450h-92l-27 209q-83 18 -326 18h-127v-352q6 1 33 7t45 9q57 11 121 11q212 0 317 -99t105 -297q0 -204 -125 -311q-127 -109 -358 -109q-184 0 -371 41l-10 324h92l51 -215q48 -25 98 -35q59 -12 105 -12q229 0 229 307q0 163 -47 234
t-154 71q-59 0 -104 -26l-27 -13h-100v588z" />
    <glyph glyph-name="uni01BD" unicode="&#x1bd;" horiz-adv-x="786" 
d="M145 850l-143 24v66h766v-342h-76l-43 143q-108 19 -198 19h-195v-213q8 2 30.5 7.5t37.5 8.5q45 10 98 10q179 0 272 -75q94 -76 94 -209q0 -151 -110 -230t-313 -79q-170 0 -324 34l-8 279h78l47 -172q33 -18 80 -29q53 -12 92 -12q200 0 200 207q0 98 -38 139
q-40 43 -136 43q-21 0 -49 -4q-15 -2 -67 -29h-95v414z" />
    <glyph glyph-name="uni01BE" unicode="&#x1be;" horiz-adv-x="681" 
d="M96 836l-88 -7v66l109 39l116 213h150v-213h197v-105h-197v-73q0 -42 18 -76q17 -32 86 -86q100 -77 129 -143q31 -70 31 -150q0 -156 -86 -242t-242 -86q-60 0 -141 19q-67 16 -115 35v256h66l39 -131q58 -82 147 -82q59 0 91 32q34 34 34 88q0 65 -34 111
q-33 45 -117 92q-85 47 -113 74q-28 28 -45 63q-18 38 -27 72q-8 31 -8 234z" />
    <glyph glyph-name="uni01BF" unicode="&#x1bf;" horiz-adv-x="1220" 
d="M518 -436h-446v65l157 25v1196l-153 24v66h442v-172q52 94 139 147q85 52 195 52q136 0 215 -99q80 -100 80 -270q0 -232 -160 -412q-159 -178 -469 -280v-342zM518 6v-2q336 179 336 590q0 112 -37 176q-38 66 -104 66q-29 0 -58 -19q-27 -18 -55 -49q-20 -22 -82 -121
v-641z" />
    <glyph glyph-name="uni01C0" unicode="&#x1c0;" horiz-adv-x="450" 
d="M305 0h-160v1421h160v-1421z" />
    <glyph glyph-name="uni01C1" unicode="&#x1c1;" horiz-adv-x="663" 
d="M555 0h-160v1421h160v-1421zM268 0h-159v1421h159v-1421z" />
    <glyph glyph-name="uni01C2" unicode="&#x1c2;" horiz-adv-x="571" 
d="M559 467h-192v-467h-160v467h-195v145h195v131h-195v146h195v532h160v-532h192v-146h-192v-131h192v-145z" />
    <glyph glyph-name="uni01C3" unicode="&#x1c3;" horiz-adv-x="681" 
d="M397 420h-114l-93 921h299zM340 -29q-70 0 -119 49t-49 119t49 119t119 49t119 -49t49 -119t-49 -119t-119 -49z" />
    <glyph glyph-name="uni01C4" unicode="&#x1c4;" horiz-adv-x="2844" 
d="M1047 670q0 291 -105 426t-344 135h-74v-1116q94 -9 172 -9q128 0 205 56q76 55 111 176q35 122 35 332zM674 1341l2 -4q360 0 532 -163t172 -498q0 -343 -166 -512q-165 -168 -499 -168l-449 4h-229v74l172 26v1141l-172 27v73h637zM1579 111l741 1118h-239
q-229 0 -320 -21l-30 -211h-91v338h1037v-106l-748 -1131h281q105 0 225 13q100 11 158 22l59 256h90l-26 -393h-1137v115zM2497 1772v-33l-218 -293h-213l-217 293v33h76l248 -162l248 162h76z" />
    <glyph glyph-name="uni01C5" unicode="&#x1c5;" horiz-adv-x="2387" 
d="M1047 670q0 291 -105 426t-344 135h-74v-1116q94 -9 172 -9q128 0 205 56q76 55 111 176q35 122 35 332zM674 1341l2 -4q360 0 532 -163t172 -498q0 -343 -166 -512q-165 -168 -499 -168l-449 4h-229v74l172 26v1141l-172 27v73h637zM1522 -4l-2 43l430 805h-107
q-59 0 -106 -8q-51 -9 -74 -25l-31 -156h-71v281h729v-49l-430 -801h149q59 0 121 12q60 12 90 35l53 217h72l-27 -354h-796zM2259 1438v-33l-217 -293h-213l-217 293v33h76l247 -162l248 162h76z" />
    <glyph glyph-name="uni01C6" unicode="&#x1c6;" horiz-adv-x="2048" 
d="M733 53h-4q-53 -36 -86 -49q-30 -12 -68 -18q-37 -6 -81 -6q-208 0 -310 120q-100 118 -100 369q0 242 109 369t317 127q108 0 219 -27q-7 39 -4 156v237l-96 25v65h385v-1331l102 -24v-66h-362zM373 475l-2 -2q0 -185 47 -285q46 -98 135 -98q81 0 168 43v709
q-73 20 -160 20q-90 0 -139 -98t-49 -289zM1174 -2l-3 43l431 805h-107q-59 0 -106 -8q-51 -9 -74 -25l-31 -156h-72v281h730v-49l-431 -801h150q60 0 121 12q60 12 90 35l53 217h72l-27 -354h-796zM1911 1440v-33l-217 -293h-213l-217 293v33h75l248 -162l248 162h76z" />
    <glyph glyph-name="uni01C7" unicode="&#x1c7;" horiz-adv-x="2387" 
d="M729 1268l-207 -27v-1135h273q211 0 313 21l82 279h90l-39 -406h-1206v74l172 26v1141l-170 27v73h692v-73zM1868 1241l-174 19v73h639v-73l-154 -27v-809q0 -218 -119 -334q-120 -117 -340 -117q-59 0 -149 11q-67 8 -117 22v303h90l31 -178q20 -24 53 -35
q34 -12 78 -12q71 0 117 49q45 48 45 143v965z" />
    <glyph glyph-name="uni01C8" unicode="&#x1c8;" horiz-adv-x="2048" 
d="M729 1268l-207 -27v-1135h273q211 0 313 21l82 279h90l-39 -406h-1206v74l172 26v1141l-170 27v73h692v-73zM1919 1268l-4 4q0 -65 -43 -111q-42 -45 -109 -45q-64 0 -110 43q-45 42 -45 109q0 65 45 110t110 45q66 0 111 -45t45 -110zM1907 -35l2 -2q0 -189 -101 -293
t-288 -104q-90 0 -172 18v226h63l43 -115q25 -19 49 -19q54 0 84 68q31 70 31 188v912l-166 35v65h455v-979z" />
    <glyph glyph-name="uni01C9" unicode="&#x1c9;" horiz-adv-x="1249" 
d="M430 90l105 -24v-66h-494v66l100 24v1241l-96 25v65h385v-1331zM1122 1268l-4 4q0 -65 -43 -111q-42 -45 -108 -45q-65 0 -111 43q-45 42 -45 109q0 65 45 110t111 45q65 0 110 -45t45 -110zM1110 -35l2 -2q0 -190 -100 -293q-101 -104 -289 -104q-89 0 -172 18v226h63
l43 -115q25 -19 50 -19q54 0 84 68q30 67 30 188v912l-166 35v65h455v-979z" />
    <glyph glyph-name="uni01CA" unicode="&#x1ca;" horiz-adv-x="2502" 
d="M1155 1241l-180 27v73h477v-73l-172 -27v-1241h-117l-827 1077v-977l180 -26v-74h-477v74l172 26v1141l-172 27v73h459l657 -858v758zM1980 1241l-174 19v73h639v-73l-153 -27v-809q0 -218 -119 -334q-120 -117 -340 -117q-60 0 -150 11q-65 8 -116 22v303h90l31 -178
q20 -24 53 -35q35 -12 78 -12q70 0 116 49q45 48 45 143v965z" />
    <glyph glyph-name="uni01CB" unicode="&#x1cb;" horiz-adv-x="2160" 
d="M1155 1241l-180 27v73h477v-73l-172 -27v-1241h-117l-827 1077v-977l180 -26v-74h-477v74l172 26v1141l-172 27v73h459l657 -858v758zM2032 1268l-4 4q0 -65 -43 -111q-42 -45 -109 -45q-65 0 -111 43q-45 42 -45 109q0 65 45 110t111 45t111 -45t45 -110zM2019 -35l2 -2
q0 -190 -100 -293q-101 -104 -289 -104q-90 0 -172 18v226h64l43 -115q25 -19 49 -19q54 0 84 68q31 70 31 188v912l-166 35v65h454v-979z" />
    <glyph glyph-name="uni01CC" unicode="&#x1cc;" horiz-adv-x="1820" 
d="M434 858l70 37q141 72 252 72q260 0 260 -277v-598l94 -24v-66h-467v66l84 24v559q0 83 -37 129q-38 47 -100 47q-79 0 -154 -34v-703l86 -24v-66h-467v66l92 24v760l-92 24v66h365zM1694 1270l-4 4q0 -65 -43 -111q-42 -45 -109 -45q-65 0 -111 43q-45 42 -45 109
q0 65 45 110t111 45t111 -45t45 -110zM1681 -33l2 -2q0 -190 -100 -293q-101 -104 -289 -104q-90 0 -172 18v226h64l43 -115q25 -19 49 -19q54 0 84 68q31 70 31 188v912l-166 35v65h454v-979z" />
    <glyph glyph-name="uni01CD" unicode="&#x1cd;" horiz-adv-x="1478" 
d="M428 74v-74h-408v74l101 26l477 1252h289l475 -1252l102 -26v-74h-598v74l156 26l-127 346h-516l-123 -346zM641 1151l-221 -594h436zM1067 1778v-33l-217 -293h-213l-217 293v33h76l247 -162l248 162h76z" />
    <glyph glyph-name="uni01CE" unicode="&#x1ce;" horiz-adv-x="1024" 
d="M547 961v-5q352 0 352 -260v-610l94 -25v-65h-346l-22 72q-79 -54 -140 -72q-65 -19 -127 -19q-290 0 -290 281q0 108 43 172t122 94t256 33l123 4v137q0 170 -139 170q-82 0 -188 -53l-37 -117h-68v228q167 23 221 28q82 7 146 7zM610 467l-88 -6q-96 -3 -133 -49
t-37 -152q0 -83 31 -125q29 -39 80 -39q66 0 147 35v336zM838 1436v-33l-217 -293h-213l-218 293v33h76l248 -162l248 162h76z" />
    <glyph glyph-name="uni01CF" unicode="&#x1cf;" horiz-adv-x="796" 
d="M555 100l172 -26v-74h-657v74l172 26v1141l-172 27v73h657v-73l-172 -27v-1141zM721 1778v-33l-217 -293h-213l-217 293v33h76l247 -162l248 162h76z" />
    <glyph glyph-name="uni01D0" unicode="&#x1d0;" horiz-adv-x="567" 
d="M436 90l103 -24v-66h-494v66l102 24v760l-96 24v66h385v-850zM618 1444v-33l-217 -293h-213l-217 293v33h76l248 -162l248 162h75z" />
    <glyph glyph-name="uni01D1" unicode="&#x1d1;" horiz-adv-x="1591" 
d="M432 672v-2q0 -319 86 -455q86 -135 277 -135q188 0 276 137t88 455q0 317 -88 448q-89 133 -276 133q-191 0 -277 -133t-86 -448zM100 670v-4q0 684 697 684q345 0 520 -172q176 -173 176 -510q0 -341 -178 -516t-518 -175q-338 0 -518 177q-179 176 -179 516z
M1128 1772v-33l-217 -293h-213l-217 293v33h76l248 -162l248 162h75z" />
    <glyph glyph-name="uni01D2" unicode="&#x1d2;" horiz-adv-x="1024" 
d="M514 965q224 0 328 -125t104 -365q0 -247 -105 -371t-335 -124q-428 0 -428 495q0 244 104.5 367t331.5 123zM653 475q0 50 -0.5 75t-2 69t-5.5 67.5t-10.5 57t-17 51t-25.5 36t-36 26t-48 7.5q-20 0 -36.5 -5t-29.5 -16.5t-23 -24t-17.5 -33.5t-12.5 -39t-8.5 -47
t-5.5 -50t-3 -56t-1 -57.5v-60.5q0 -54 0.5 -87.5t3.5 -80t8 -75t15 -61t24.5 -50t36 -29.5t49.5 -12q27 0 48 8t36 26.5t25.5 37t17 52.5t10.5 58t5.5 68.5t2 69.5t0.5 75zM836 1444v-33l-218 -293h-212l-218 293v33h76l248 -162l248 162h76z" />
    <glyph glyph-name="uni01D3" unicode="&#x1d3;" horiz-adv-x="1478" 
d="M838 123q149 0 233 84q82 82 82 246v788l-178 27v73h455v-73l-152 -27v-780q0 -232 -135 -355q-134 -122 -383 -122q-269 0 -412 125t-143 362v772l-152 27v73h639v-73l-172 -27v-786q0 -162 80 -248t238 -86zM1092 1778v-33l-218 -293h-212l-218 293v33h76l248 -162
l248 162h76z" />
    <glyph glyph-name="uni01D4" unicode="&#x1d4;" horiz-adv-x="1138" 
d="M705 82l-72 -37q-141 -72 -252 -72q-260 0 -260 277v598l-94 24v66h383v-649q0 -84 36 -129q38 -47 103 -47q78 0 153 34v703l-86 24v66h375v-850l92 -24v-66h-364zM883 1442v-33l-217 -293h-213l-217 293v33h75l248 -162l248 162h76z" />
    <glyph glyph-name="uni01D5" unicode="&#x1d5;" horiz-adv-x="1478" 
d="M838 123q149 0 233 84q82 82 82 246v788l-178 27v73h455v-73l-152 -27v-780q0 -232 -135 -355q-134 -122 -383 -122q-269 0 -412 125t-143 362v772l-152 27v73h639v-73l-172 -27v-786q0 -162 80 -248t238 -86zM475 1686v139h627v-139h-627zM948 1423q-35 0 -67 29
q-31 28 -31 72q0 38 29 67q27 27 67 27q41 0 68 -27q28 -28 28 -67q0 -41 -26 -70q-28 -31 -68 -31zM631 1423l4 -6q-39 0 -70 31q-30 30 -30 70q0 39 28 67q29 29 68 29q40 0 67 -27t27 -67q0 -41 -29 -70q-27 -27 -65 -27z" />
    <glyph glyph-name="uni01D6" unicode="&#x1d6;" horiz-adv-x="1138" 
d="M705 82l-72 -37q-141 -72 -252 -72q-260 0 -260 277v598l-94 24v66h383v-649q0 -84 36 -129q38 -47 103 -47q78 0 153 34v703l-86 24v66h375v-850l92 -24v-66h-364zM723 1040v2q-46 0 -84 35q-37 34 -37 86q0 50 37 84q38 35 84 35q51 0 84 -33q35 -35 35 -86
q0 -48 -35 -86q-34 -37 -84 -37zM387 1042h-2q-47 0 -84 37t-37 84t37 84t86 37q50 0 84 -37q35 -38 35 -82q0 -48 -35 -86q-34 -37 -84 -37zM238 1380v152h628v-152h-628z" />
    <glyph glyph-name="uni01D7" unicode="&#x1d7;" horiz-adv-x="1478" 
d="M838 123q149 0 233 84q82 82 82 246v788l-178 27v73h455v-73l-152 -27v-780q0 -232 -135 -355q-134 -122 -383 -122q-269 0 -412 125t-143 362v772l-152 27v73h639v-73l-172 -27v-786q0 -162 80 -248t238 -86zM946 1380q-35 0 -67 29q-31 28 -31 72q0 38 29 67
q27 27 67 27q41 0 68 -27q28 -28 28 -67q0 -41 -26 -70q-28 -31 -68 -31zM633 1380l4 -6q-39 0 -70 31q-30 30 -30 70q0 39 28 67q29 29 68 29q40 0 67 -27t27 -67q0 -41 -29 -70q-27 -27 -65 -27zM735 1604v32l101 172h194v-36l-209 -168h-86z" />
    <glyph glyph-name="uni01D8" unicode="&#x1d8;" horiz-adv-x="1138" 
d="M705 82l-72 -37q-141 -72 -252 -72q-260 0 -260 277v598l-94 24v66h383v-649q0 -84 36 -129q38 -47 103 -47q78 0 153 34v703l-86 24v66h375v-850l92 -24v-66h-364zM723 1040v2q-46 0 -84 35q-37 34 -37 86q0 50 37 84q38 35 84 35q51 0 84 -33q35 -35 35 -86
q0 -48 -35 -86q-34 -37 -84 -37zM387 1042h-2q-47 0 -84 37t-37 84t37 84t86 37q50 0 84 -37q35 -38 35 -82q0 -48 -35 -86q-34 -37 -84 -37zM397 1378v33l166 272h285v-36l-365 -269h-86z" />
    <glyph glyph-name="uni01D9" unicode="&#x1d9;" horiz-adv-x="1478" 
d="M838 123q149 0 233 84q82 82 82 246v788l-178 27v73h455v-73l-152 -27v-780q0 -232 -135 -355q-134 -122 -383 -122q-269 0 -412 125t-143 362v772l-152 27v73h639v-73l-172 -27v-786q0 -162 80 -248t238 -86zM948 1378q-35 0 -67 29q-31 28 -31 72q0 38 29 67
q27 27 67 27q41 0 68 -27q28 -28 28 -67q0 -41 -26 -70q-28 -31 -68 -31zM635 1378l4 -6q-39 0 -70 31q-30 30 -30 70q0 39 28 67q29 29 68 29q40 0 67 -27t27 -67q0 -41 -29 -70q-27 -27 -65 -27zM1096 1821v-35l-217 -209h-172l-218 209v35h76l228 -127l227 127h76z" />
    <glyph glyph-name="uni01DA" unicode="&#x1da;" horiz-adv-x="1138" 
d="M705 82l-72 -37q-141 -72 -252 -72q-260 0 -260 277v598l-94 24v66h383v-649q0 -84 36 -129q38 -47 103 -47q78 0 153 34v703l-86 24v66h375v-850l92 -24v-66h-364zM881 1702v-33l-217 -293h-213l-218 293v33h76l248 -162l248 162h76zM723 1040v2q-46 0 -84 35
q-37 34 -37 86q0 50 37 84q38 35 84 35q51 0 84 -33q35 -35 35 -86q0 -48 -35 -86q-34 -37 -84 -37zM387 1042h-2q-47 0 -84 37t-37 84t37 84t86 37q50 0 84 -37q35 -38 35 -82q0 -48 -35 -86q-34 -37 -84 -37z" />
    <glyph glyph-name="uni01DB" unicode="&#x1db;" horiz-adv-x="1478" 
d="M838 123q149 0 233 84q82 82 82 246v788l-178 27v73h455v-73l-152 -27v-780q0 -232 -135 -355q-134 -122 -383 -122q-269 0 -412 125t-143 362v772l-152 27v73h639v-73l-172 -27v-786q0 -162 80 -248t238 -86zM756 1620l-209 168v37h196l99 -172v-33h-86zM948 1393
q-36 0 -67 28t-31 72q0 39 29 68q26 26 67 26q42 0 68 -26q28 -28 28 -68q0 -41 -26 -70q-27 -30 -68 -30zM635 1393l4 -7q-39 0 -70 31q-30 30 -30 70q0 39 28 67q29 29 68 29q40 0 67 -27t27 -67q0 -41 -29 -70q-26 -26 -65 -26z" />
    <glyph glyph-name="uni01DC" unicode="&#x1dc;" horiz-adv-x="1138" 
d="M705 82l-72 -37q-141 -72 -252 -72q-260 0 -260 277v598l-94 24v66h383v-649q0 -84 36 -129q38 -47 103 -47q78 0 153 34v703l-86 24v66h375v-850l92 -24v-66h-364zM723 1040v2q-46 0 -84 35q-37 34 -37 86q0 50 37 84q38 35 84 35q51 0 84 -33q35 -35 35 -86
q0 -48 -35 -86q-34 -37 -84 -37zM387 1042h-2q-47 0 -84 37t-37 84t37 84t86 37q50 0 84 -37q35 -38 35 -82q0 -48 -35 -86q-34 -37 -84 -37zM616 1378l-364 269v36h285l165 -272v-33h-86z" />
    <glyph glyph-name="uni01DD" unicode="&#x1dd;" horiz-adv-x="907" 
d="M432 -18l-2 -7q-190 0 -276 103t-86 317v82h493v17q0 152 -24 213t-80 96t-148 35q-78 0 -223 -29v76q55 34 143 55q97 23 172 23q232 0 342 -119q111 -120 111 -375q0 -248 -104 -367q-105 -120 -318 -120zM440 76l-6 2q60 0 90 65q31 67 31 228h-217q0 -125 10 -187
q9 -53 31 -82q20 -26 61 -26z" />
    <glyph glyph-name="uni01DE" unicode="&#x1de;" horiz-adv-x="1478" 
d="M428 74v-74h-408v74l101 26l477 1252h289l475 -1252l102 -26v-74h-598v74l156 26l-127 346h-516l-123 -346zM641 1151l-221 -594h436zM422 1686v139h627v-139h-627zM895 1423q-36 0 -68 29q-30 27 -30 72q0 39 28 67q27 27 68 27t68 -27q28 -28 28 -67q0 -41 -26 -70
q-28 -31 -68 -31zM578 1423l4 -6q-39 0 -70 31t-31 70q0 38 29 67t68 29q40 0 67 -27t27 -67q0 -41 -29 -70q-27 -27 -65 -27z" />
    <glyph glyph-name="uni01DF" unicode="&#x1df;" horiz-adv-x="1024" 
d="M547 961v-5q352 0 352 -260v-610l94 -25v-65h-346l-22 72q-79 -54 -140 -72q-65 -19 -127 -19q-290 0 -290 281q0 108 43 172t122 94t256 33l123 4v137q0 170 -139 170q-82 0 -188 -53l-37 -117h-68v228q167 23 221 28q82 7 146 7zM610 467l-88 -6q-96 -3 -133 -49
t-37 -152q0 -83 31 -125q29 -39 80 -39q66 0 147 35v336zM680 1034v2q-46 0 -84 35q-37 34 -37 86q0 50 37 84q38 35 84 35q51 0 84 -33q35 -35 35 -86q0 -48 -35 -86q-34 -37 -84 -37zM344 1036h-2q-47 0 -84 37t-37 84t37 84t86 37q50 0 84 -37q35 -38 35 -82
q0 -48 -35 -86q-34 -37 -84 -37zM195 1374v152h628v-152h-628z" />
    <glyph glyph-name="uni01E0" unicode="&#x1e0;" horiz-adv-x="1478" 
d="M428 74v-74h-408v74l101 26l477 1252h289l475 -1252l102 -26v-74h-598v74l156 26l-127 346h-516l-123 -346zM641 1151l-221 -594h436zM422 1706v139h627v-139h-627zM600 1530h-4q0 56 41 94q40 37 96 37q58 0 98 -37q39 -36 39 -92q0 -53 -36 -92t-97 -39q-58 0 -98 37
q-39 36 -39 92z" />
    <glyph glyph-name="uni01E1" unicode="&#x1e1;" horiz-adv-x="1024" 
d="M547 961v-5q352 0 352 -260v-610l94 -25v-65h-346l-22 72q-79 -54 -140 -72q-65 -19 -127 -19q-290 0 -290 281q0 108 43 172t122 94t256 33l123 4v137q0 170 -139 170q-82 0 -188 -53l-37 -117h-68v228q167 23 221 28q82 7 146 7zM610 467l-88 -6q-96 -3 -133 -49
t-37 -152q0 -83 31 -125q29 -39 80 -39q66 0 147 35v336zM356 1171l-4 9q0 64 47 108q46 43 109 43q65 0 110 -45q46 -46 46 -110q0 -65 -43 -111q-42 -45 -109 -45q-65 0 -111 43q-45 42 -45 108zM190 1380v152h629v-152h-629z" />
    <glyph glyph-name="uni01E2" unicode="&#x1e2;" horiz-adv-x="2048" 
d="M827 1251l-143 19v71h1174v-342h-91l-32 218q-106 14 -265 14h-198v-492h282l31 148h88v-412h-88l-31 152h-282v-516h244q193 0 278 16l57 248h91l-19 -375h-1139v74l172 26v346h-460l-205 -346l151 -26v-74h-428v74l121 26zM956 557v680l-397 -680h397zM883 1454v152
h628v-152h-628z" />
    <glyph glyph-name="uni01E3" unicode="&#x1e3;" horiz-adv-x="1478" 
d="M987 965l-8 -2q205 0 309 -107q105 -108 105 -313v-82h-523v-53q3 -115 31 -179q26 -58 86 -94q56 -33 154 -33q31 0 110 11q65 9 105 18v-76q-52 -34 -131 -55q-76 -20 -160 -20q-135 0 -221 30q-83 29 -137 92q-155 -125 -357 -125q-143 0 -217 68t-74 213q0 74 25 129
q23 51 72 90q46 37 123 55q86 20 221 23l98 4v135q0 89 -33 131q-34 43 -104 43q-94 0 -180 -51l-39 -119h-66v228q178 38 338 35q158 0 231 -70q92 74 242 74zM459 98l-4 -6q53 0 102 19q43 17 92 45q-29 37 -43 104q-16 75 -16 154v51l-74 -2q-65 -3 -104 -23
q-35 -18 -50 -61q-16 -46 -16 -117q0 -86 33 -125t80 -39zM991 854v-4q-63 0 -94 -66q-31 -67 -31 -227h230q0 167 -25 234q-23 63 -80 63zM406 1108v152h628v-152h-628z" />
    <glyph glyph-name="uni01E4" unicode="&#x1e4;" horiz-adv-x="1591" 
d="M1536 258l-127 -4v-188q-135 -43 -289 -66q-170 -25 -295 -25q-216 0 -381 80q-161 78 -251 234q-89 154 -89 362q0 339 193 520q195 183 549 183q88 0 158 -6q63 -5 133 -19q76 -15 227 -57v-309h-90l-25 174q-84 55 -174 84q-95 30 -196 30q-231 0 -340 -145
q-107 -143 -107 -449q0 -285 113 -428q115 -145 325 -145q115 0 222 35v139h-226v123h226v125l-172 26v74h616v-74l-129 -26v-125h129v-123z" />
    <glyph glyph-name="uni01E5" unicode="&#x1e5;" horiz-adv-x="1024" 
d="M965 -254l-7 -4q-53 -96 -176 -148q-119 -51 -305 -51t-303 54q-114 52 -123 145h-55v92h78q42 54 153 117q-57 20 -98 80q-41 59 -41 123l166 188q-179 77 -176 295q0 157 108 242q109 86 312 86q31 0 110 -7q65 -6 99 -16l225 111l35 -43l-115 -162q60 -75 63 -209
q0 -162 -106 -246q-109 -86 -313 -86q-80 0 -154 12l-23 -75q3 -31 37 -54q35 -24 86 -24h220q342 0 342 -264q0 -17 -7 -64h27v-92h-59zM487 406q75 0 109 57q35 59 35 172q0 117 -33 170q-34 55 -111 55q-70 0 -100 -55q-31 -57 -31 -170q0 -112 31 -172q29 -57 100 -57z
M336 -76q-58 -45 -78 -90h520q-3 90 -127 90h-315zM477 -348q206 0 275 90h-500q38 -90 225 -90z" />
    <glyph glyph-name="uni01E6" unicode="&#x1e6;" horiz-adv-x="1591" 
d="M1407 70l2 -4q-135 -43 -289 -66q-170 -25 -295 -25q-216 0 -381 80q-161 78 -251 234q-89 154 -89 362q0 339 193 520q195 183 549 183q88 0 158 -6q63 -5 133 -19q76 -15 227 -57v-309h-90l-25 174q-84 55 -174 84q-95 30 -196 30q-231 0 -340 -145
q-107 -143 -107 -449q0 -285 113 -428q115 -145 325 -145q115 0 222 35v387l-172 26v74h616v-74l-129 -26v-436zM1167 1774v-33l-217 -293h-213l-217 293v33h76l248 -162l248 162h75z" />
    <glyph glyph-name="uni01E7" unicode="&#x1e7;" horiz-adv-x="1024" 
d="M256 346l-6 -10q-179 77 -176 295q0 155 108 241q109 86 312 86q42 0 110 -6q63 -6 98 -16l226 111l35 -43l-115 -162q60 -75 63 -209q0 -162 -106 -246q-109 -86 -313 -86q-81 0 -154 12l-23 -75q3 -31 37 -54q34 -24 86 -24h219q342 0 342 -264q0 -107 -59 -187
t-174 -123q-116 -43 -289 -43q-201 0 -315 60q-111 59 -111 159q0 45 37 88q39 45 141 105q-57 20 -98 80q-41 59 -41 123zM778 -176l2 4q0 94 -127 94h-315q-88 -64 -88 -143q0 -64 61 -98q59 -33 168 -33q144 0 221 47q78 47 78 129zM489 403q75 0 109 58q35 59 35 172
q0 117 -33 170q-34 55 -111 55q-70 0 -100 -55q-31 -57 -31 -170q0 -112 31 -172q30 -58 100 -58zM811 1438v-33l-217 -293h-213l-217 293v33h76l247 -162l248 162h76z" />
    <glyph glyph-name="uni01E8" unicode="&#x1e8;" horiz-adv-x="1591" 
d="M1468 1341v-73l-163 -27l-443 -389l590 -752l125 -26v-74h-438l-500 645l-117 -98v-447l193 -26v-74h-680v74l172 26v1141l-172 27v73h659v-73l-172 -27v-545l611 545l-123 27v73h458zM1106 1778v-33l-217 -293h-213l-217 293v33h76l247 -162l248 162h76z" />
    <glyph glyph-name="uni01E9" unicode="&#x1e9;" horiz-adv-x="1138" 
d="M436 451l367 401l-101 22v66h359v-66l-109 -22l-223 -236l324 -526l84 -24v-66h-453v66l55 24l-188 330l-115 -80v-250l92 -24v-66h-471v66l90 24v1241l-96 25v65h385v-970zM911 1819v-33l-217 -293h-213l-217 293v33h76l248 -162l248 162h75z" />
    <glyph glyph-name="uni01EA" unicode="&#x1ea;" horiz-adv-x="1591" 
d="M922 -416v-10q-114 0 -174 57q-62 59 -62 160q0 102 76 184q-322 9 -492 185t-170 508q0 684 697 684q345 0 520 -172q176 -173 176 -510q0 -307 -147 -482t-426 -202q-48 -88 -48 -172q0 -57 31 -88t84 -31t135 29v-84q-89 -56 -200 -56zM432 662v-3q0 -318 86 -454
q86 -135 277 -135q188 0 276 137t88 455q0 317 -88 448q-89 133 -276 133q-191 0 -277 -133t-86 -448z" />
    <glyph glyph-name="uni01EB" unicode="&#x1eb;" horiz-adv-x="1024" 
d="M627 -414l-2 -8q-114 0 -174 57q-62 59 -62 160q0 100 74 180q-200 12 -293 140q-92 127 -92 356q0 249 108 369q109 121 330 121q223 0 328 -123q104 -122 104 -365q0 -217 -80 -338q-80 -120 -241 -147q-47 -86 -47 -172q0 -57 28 -88t80 -31q54 0 139 29v-84
q-89 -56 -200 -56zM651 467v-2q0 223 -33 305q-35 86 -112 86t-107 -80t-30 -307q0 -231 30 -313t107 -82t112 86q33 82 33 307z" />
    <glyph glyph-name="uni01EC" unicode="&#x1ec;" horiz-adv-x="1591" 
d="M922 -416v-10q-114 0 -174 57q-62 59 -62 160q0 102 76 184q-322 9 -492 185t-170 508q0 684 697 684q345 0 520 -172q176 -173 176 -510q0 -307 -147 -482t-426 -202q-48 -88 -48 -172q0 -57 31 -88t84 -31t135 29v-84q-89 -56 -200 -56zM432 662v-3q0 -318 86 -454
q86 -135 277 -135q188 0 276 137t88 455q0 317 -88 448q-89 133 -276 133q-191 0 -277 -133t-86 -448zM481 1442v151h629v-151h-629z" />
    <glyph glyph-name="uni01ED" unicode="&#x1ed;" horiz-adv-x="1024" 
d="M627 -414l-2 -8q-114 0 -174 57q-62 59 -62 160q0 100 74 180q-200 12 -293 140q-92 127 -92 356q0 249 108 369q109 121 330 121q223 0 328 -123q104 -122 104 -365q0 -217 -80 -338q-80 -120 -241 -147q-47 -86 -47 -172q0 -57 28 -88t80 -31q54 0 139 29v-84
q-89 -56 -200 -56zM651 467v-2q0 223 -33 305q-35 86 -112 86t-107 -80t-30 -307q0 -231 30 -313t107 -82t112 86q33 82 33 307zM195 1110v152h628v-152h-628z" />
    <glyph glyph-name="uni01EE" unicode="&#x1ee;" horiz-adv-x="1189" 
d="M479 -442v-2q-248 0 -430 38l-4 357h92l45 -246q54 -23 129 -37q74 -14 142 -14q180 0 266 121t86 375q0 225 -105 333q-104 107 -346 107h-71v104l395 539h-119q-227 0 -319 -21l-31 -211h-88v338h893v-106l-436 -555q278 -41 409 -172q133 -133 133 -369
q0 -281 -168 -430t-473 -149zM901 1849v-32l-217 -293h-213l-217 293v32h76l248 -161l247 161h76z" />
    <glyph glyph-name="uni01EF" unicode="&#x1ef;" horiz-adv-x="937" 
d="M350 -442l4 -4q-93 0 -174 20q-85 21 -143 61v76q121 -33 264 -30q139 0 209 73q72 75 72 244q0 173 -68 256q-69 84 -211 84h-92v59l291 451h-158q-59 0 -106 -8q-50 -9 -70 -25l-33 -156h-72v281h775v-49l-320 -469q354 -58 354 -406q0 -220 -135 -340
q-133 -118 -387 -118zM778 1440v-33l-217 -293h-213l-217 293v33h76l248 -162l247 162h76z" />
    <glyph glyph-name="uni01F0" unicode="&#x1f0;" horiz-adv-x="681" 
d="M545 -39l2 -2q0 -189 -101 -293t-288 -104q-90 0 -172 18v225h63l43 -114q25 -19 49 -19q54 0 84 68q31 70 31 188v912l-166 34v66h455v-979zM723 1442v-33l-217 -293h-213l-217 293v33h76l247 -162l248 162h76z" />
    <glyph glyph-name="uni01F1" unicode="&#x1f1;" horiz-adv-x="2844" 
d="M1047 670q0 291 -105 426t-344 135h-74v-1116q94 -9 172 -9q128 0 205 56q76 55 111 176q35 122 35 332zM674 1341l2 -4q360 0 532 -163t172 -498q0 -343 -166 -512q-165 -168 -499 -168l-449 4h-229v74l172 26v1141l-172 27v73h637zM1579 111l741 1118h-239
q-229 0 -320 -21l-30 -211h-91v338h1037v-106l-748 -1131h281q105 0 225 13q100 11 158 22l59 256h90l-26 -393h-1137v115z" />
    <glyph glyph-name="uni01F2" unicode="&#x1f2;" horiz-adv-x="2387" 
d="M1047 670q0 291 -105 426t-344 135h-74v-1116q94 -9 172 -9q128 0 205 56q76 55 111 176q35 122 35 332zM674 1341l2 -4q360 0 532 -163t172 -498q0 -343 -166 -512q-165 -168 -499 -168l-449 4h-229v74l172 26v1141l-172 27v73h637zM1522 -4l-2 43l430 805h-107
q-59 0 -106 -8q-51 -9 -74 -25l-31 -156h-71v281h729v-49l-430 -801h149q59 0 121 12q60 12 90 35l53 217h72l-27 -354h-796z" />
    <glyph glyph-name="uni01F3" unicode="&#x1f3;" horiz-adv-x="2048" 
d="M733 53h-4q-53 -36 -86 -49q-30 -12 -68 -18q-37 -6 -81 -6q-208 0 -310 120q-100 118 -100 369q0 242 109 369t317 127q108 0 219 -27q-7 39 -4 156v237l-96 25v65h385v-1331l102 -24v-66h-362zM373 475l-2 -2q0 -185 47 -285q46 -98 135 -98q81 0 168 43v709
q-73 20 -160 20q-90 0 -139 -98t-49 -289zM1174 -2l-3 43l431 805h-107q-59 0 -106 -8q-51 -9 -74 -25l-31 -156h-72v281h730v-49l-431 -801h150q60 0 121 12q60 12 90 35l53 217h72l-27 -354h-796z" />
    <glyph glyph-name="uni01F4" unicode="&#x1f4;" horiz-adv-x="1591" 
d="M1407 70l2 -4q-135 -43 -289 -66q-170 -25 -295 -25q-216 0 -381 80q-161 78 -251 234q-89 154 -89 362q0 339 193 520q195 183 549 183q88 0 158 -6q63 -5 133 -19q76 -15 227 -57v-309h-90l-25 174q-84 55 -174 84q-95 30 -196 30q-231 0 -340 -145
q-107 -143 -107 -449q0 -285 113 -428q115 -145 325 -145q115 0 222 35v387l-172 26v74h616v-74l-129 -26v-436zM670 1448v33l166 272h284v-37l-364 -268h-86z" />
    <glyph glyph-name="uni01F5" unicode="&#x1f5;" horiz-adv-x="1024" 
d="M256 346l-6 -10q-179 77 -176 295q0 155 108 241q109 86 312 86q42 0 110 -6q63 -6 98 -16l226 111l35 -43l-115 -162q60 -75 63 -209q0 -162 -106 -246q-109 -86 -313 -86q-81 0 -154 12l-23 -75q3 -31 37 -54q34 -24 86 -24h219q342 0 342 -264q0 -107 -59 -187
t-174 -123q-116 -43 -289 -43q-201 0 -315 60q-111 59 -111 159q0 45 37 88q39 45 141 105q-57 20 -98 80q-41 59 -41 123zM778 -176l2 4q0 94 -127 94h-315q-88 -64 -88 -143q0 -64 61 -98q59 -33 168 -33q144 0 221 47q78 47 78 129zM489 403q75 0 109 58q35 59 35 172
q0 117 -33 170q-34 55 -111 55q-70 0 -100 -55q-31 -57 -31 -170q0 -112 31 -172q30 -58 100 -58zM397 1112v33l166 272h285v-37l-365 -268h-86z" />
    <glyph glyph-name="uni01F6" unicode="&#x1f6;" horiz-adv-x="1986" 
d="M1522 -20q-230 0 -342 77q-111 77 -111 232v348h-547v-535l172 -26v-74h-659v74l172 26v1141l-172 27v73h659v-73l-172 -27v-495h547v495l-172 27v73h662v-73l-173 -27v-942q0 -124 31 -184q30 -58 103 -58q64 0 98 64q35 65 35 178v543l-119 24v74h410v-653
q0 -151 -105 -230q-104 -79 -317 -79z" />
    <glyph glyph-name="uni01F7" unicode="&#x1f7;" horiz-adv-x="1320" 
d="M522 -442l-483 -2v71l170 29v1583l-172 27v73h487v-198q68 101 160 159q89 56 197 56q182 0 282 -127q99 -126 99 -357q0 -304 -191 -530q-190 -224 -549 -356v-428zM748 1143l-3 -4q-115 0 -223 -135v-908q202 102 307 289t105 442q0 152 -49 234t-137 82z" />
    <glyph glyph-name="uni01F8" unicode="&#x1f8;" horiz-adv-x="1478" 
d="M1155 1241l-180 27v73h477v-73l-172 -27v-1241h-117l-827 1077v-977l180 -26v-74h-477v74l172 26v1141l-172 27v73h459l657 -858v758zM827 1526l-364 268v37h285l165 -272v-33h-86z" />
    <glyph glyph-name="uni01F9" unicode="&#x1f9;" horiz-adv-x="1138" 
d="M434 858l70 37q141 72 252 72q260 0 260 -277v-598l94 -24v-66h-467v66l84 24v559q0 83 -37 129q-38 47 -100 47q-79 0 -154 -34v-703l86 -24v-66h-467v66l92 24v760l-92 24v66h365zM631 1120l-365 269v36h285l166 -272v-33h-86z" />
    <glyph glyph-name="Aringacute" unicode="&#x1fa;" horiz-adv-x="1478" 
d="M428 74v-74h-408v74l101 26l477 1252h289l475 -1252l102 -26v-74h-598v74l156 26l-127 346h-516l-123 -346zM641 1151l-221 -594h436zM731 1272l-2 -4q-86 0 -147 61q-62 62 -62 152q0 89 62 151t149 62q88 0 150 -62q61 -61 61 -149q0 -89 -61 -150t-150 -61zM729 1579
q-38 0 -70 -29q-30 -27 -30 -67t30 -70q31 -31 70 -31t70 31q30 30 30 70t-30 67q-32 29 -70 29zM627 1755v33l166 272h284v-37l-364 -268h-86z" />
    <glyph glyph-name="aringacute" unicode="&#x1fb;" horiz-adv-x="1024" 
d="M547 961v-5q352 0 352 -260v-610l94 -25v-65h-346l-22 72q-79 -54 -140 -72q-65 -19 -127 -19q-290 0 -290 281q0 108 43 172t122 94t256 33l123 4v137q0 170 -139 170q-82 0 -188 -53l-37 -117h-68v228q167 23 221 28q82 7 146 7zM610 467l-88 -6q-96 -3 -133 -49
t-37 -152q0 -83 31 -125q29 -39 80 -39q66 0 147 35v336zM514 1051l-2 -4q-86 0 -147 61q-62 62 -62 152q0 89 62 151t149 62q88 0 150 -62q61 -61 61 -149q0 -89 -61 -150t-150 -61zM512 1358q-38 0 -70 -29q-30 -27 -30 -67t30 -70q31 -31 70 -31t70 31q30 30 30 70
t-30 67q-32 29 -70 29zM408 1550v33l165 272h285v-36l-364 -269h-86z" />
    <glyph glyph-name="AEacute" unicode="&#x1fc;" horiz-adv-x="2048" 
d="M827 1251l-143 19v71h1174v-342h-91l-32 218q-106 14 -265 14h-198v-492h282l31 148h88v-412h-88l-31 152h-282v-516h244q193 0 278 16l57 248h91l-19 -375h-1139v74l172 26v346h-460l-205 -346l151 -26v-74h-428v74l121 26zM956 557v680l-397 -680h397zM1108 1452v33
l166 272h285v-37l-365 -268h-86z" />
    <glyph glyph-name="aeacute" unicode="&#x1fd;" horiz-adv-x="1478" 
d="M987 965l-8 -2q205 0 309 -107q105 -108 105 -313v-82h-523v-53q3 -115 31 -179q26 -58 86 -94q56 -33 154 -33q31 0 110 11q65 9 105 18v-76q-52 -34 -131 -55q-76 -20 -160 -20q-135 0 -221 30q-83 29 -137 92q-155 -125 -357 -125q-143 0 -217 68t-74 213q0 74 25 129
q23 51 72 90q46 37 123 55q86 20 221 23l98 4v135q0 89 -33 131q-34 43 -104 43q-94 0 -180 -51l-39 -119h-66v228q178 38 338 35q158 0 231 -70q92 74 242 74zM459 98l-4 -6q53 0 102 19q43 17 92 45q-29 37 -43 104q-16 75 -16 154v51l-74 -2q-65 -3 -104 -23
q-35 -18 -50 -61q-16 -46 -16 -117q0 -86 33 -125t80 -39zM991 854v-4q-63 0 -94 -66q-31 -67 -31 -227h230q0 167 -25 234q-23 63 -80 63zM592 1106v33l166 272h284v-37l-364 -268h-86z" />
    <glyph glyph-name="Oslashacute" unicode="&#x1fe;" horiz-adv-x="1591" 
d="M291 143v-2q-191 176 -191 529q0 684 697 684q252 0 415 -94l109 129h145l-161 -197q188 -173 188 -522q0 -341 -178 -516q-177 -174 -518 -174q-245 0 -414 96l-107 -131h-149zM432 670l-2 -2q0 -196 31 -320l620 752q-86 151 -286 151q-191 0 -277 -133t-86 -448z
M1159 668q0 190 -31 311l-618 -752q86 -151 285 -151q188 0 276 137t88 455zM694 1448v33l166 272h285v-37l-365 -268h-86z" />
    <glyph glyph-name="oslashacute" unicode="&#x1ff;" horiz-adv-x="1024" 
d="M193 94q-115 124 -115 381q0 249 108 369q109 121 330 121q143 0 240 -54l73 111h125l-118 -172q112 -121 112 -375q0 -255 -108 -375t-332 -120q-142 0 -234 51l-75 -115h-129zM371 475l2 -63l2 -56l260 379q-15 66 -45 96q-31 31 -82 31q-77 0 -107 -80t-30 -307z
M655 473v109l-262 -383q14 -56 43 -88q28 -31 74 -31q78 0 113 86q32 79 32 307zM379 1118v33l166 272h284v-37l-364 -268h-86z" />
    <glyph glyph-name="uni0200" unicode="&#x200;" horiz-adv-x="1478" 
d="M428 74v-74h-408v74l101 26l477 1252h289l475 -1252l102 -26v-74h-598v74l156 26l-127 346h-516l-123 -346zM641 1151l-221 -594h436zM592 1452l-365 268v37h285l166 -272v-33h-86zM989 1452l-362 268v37h284l164 -272v-33h-86z" />
    <glyph glyph-name="uni0201" unicode="&#x201;" horiz-adv-x="1024" 
d="M547 961v-5q352 0 352 -260v-610l94 -25v-65h-346l-22 72q-79 -54 -140 -72q-65 -19 -127 -19q-290 0 -290 281q0 108 43 172t122 94t256 33l123 4v137q0 170 -139 170q-82 0 -188 -53l-37 -117h-68v228q167 23 221 28q82 7 146 7zM610 467l-88 -6q-96 -3 -133 -49
t-37 -152q0 -83 31 -125q29 -39 80 -39q66 0 147 35v336zM387 1110l-364 268v37h284l166 -272v-33h-86zM784 1110l-362 268v37h285l163 -272v-33h-86z" />
    <glyph glyph-name="uni0202" unicode="&#x202;" horiz-adv-x="1478" 
d="M428 74v-74h-408v74l101 26l477 1252h289l475 -1252l102 -26v-74h-598v74l156 26l-127 346h-516l-123 -346zM641 1151l-221 -594h436zM743 1776v-2q139 0 218 -82q80 -83 83 -242h-100q-15 83 -67 117q-53 35 -136 35q-82 0 -129 -33q-50 -35 -71 -119h-101q3 155 82 240
q80 86 221 86z" />
    <glyph glyph-name="uni0203" unicode="&#x203;" horiz-adv-x="1024" 
d="M547 961v-5q352 0 352 -260v-610l94 -25v-65h-346l-22 72q-79 -54 -140 -72q-65 -19 -127 -19q-290 0 -290 281q0 108 43 172t122 94t256 33l123 4v137q0 170 -139 170q-82 0 -188 -53l-37 -117h-68v228q167 23 221 28q82 7 146 7zM610 467l-88 -6q-96 -3 -133 -49
t-37 -152q0 -83 31 -125q29 -39 80 -39q66 0 147 35v336zM522 1434v-2q138 0 217 -82q81 -84 84 -242h-100q-15 82 -68 117t-135 35t-129 -33q-52 -36 -72 -119h-100q3 155 82 240q80 86 221 86z" />
    <glyph glyph-name="uni0204" unicode="&#x204;" horiz-adv-x="1363" 
d="M35 74l172 26v1141l-172 27v73h1143v-342h-93l-30 218q-106 14 -326 14h-207v-492h350l31 148h90v-412h-90l-31 152h-350v-516h252q253 0 338 16l57 248h93l-21 -375h-1206v74zM528 1452l-364 268v37h285l165 -272v-33h-86zM926 1452l-363 268v37h285l164 -272v-33h-86z
" />
    <glyph glyph-name="uni0205" unicode="&#x205;" horiz-adv-x="907" 
d="M494 963h4q191 0 276 -101q86 -103 86 -315v-82h-493v-16q0 -151 24 -216q23 -62 78 -98q50 -33 147 -33q79 0 224 29v-76q-54 -34 -144 -55q-84 -20 -172 -20q-231 0 -342 120q-110 119 -110 375q0 248 104 367q106 121 318 121zM487 862h2q-58 0 -88 -65t-30 -228h217
q0 140 -8 189q-9 55 -31 80q-21 24 -62 24zM375 1118l-365 268v37h285l166 -272v-33h-86zM772 1118l-362 268v37h284l164 -272v-33h-86z" />
    <glyph glyph-name="uni0206" unicode="&#x206;" horiz-adv-x="1363" 
d="M35 74l172 26v1141l-172 27v73h1143v-342h-93l-30 218q-106 14 -326 14h-207v-492h350l31 148h90v-412h-90l-31 152h-350v-516h252q253 0 338 16l57 248h93l-21 -375h-1206v74zM657 1776v-2q138 0 217 -82q81 -84 84 -242h-100q-15 83 -67 117q-53 35 -136 35
q-82 0 -129 -33q-50 -35 -71 -119h-101q3 155 82 240q80 86 221 86z" />
    <glyph glyph-name="uni0207" unicode="&#x207;" horiz-adv-x="907" 
d="M494 963h4q191 0 276 -101q86 -103 86 -315v-82h-493v-16q0 -151 24 -216q23 -62 78 -98q50 -33 147 -33q79 0 224 29v-76q-54 -34 -144 -55q-84 -20 -172 -20q-231 0 -342 120q-110 119 -110 375q0 248 104 367q106 121 318 121zM487 862h2q-58 0 -88 -65t-30 -228h217
q0 140 -8 189q-9 55 -31 80q-21 24 -62 24zM492 1442v-2q138 0 217 -82q81 -84 84 -242h-101q-15 83 -67 117q-53 35 -136 35q-82 0 -129 -33q-50 -35 -71 -119h-101q3 155 82 240q80 86 222 86z" />
    <glyph glyph-name="uni0208" unicode="&#x208;" horiz-adv-x="796" 
d="M555 100l172 -26v-74h-657v74l172 26v1141l-172 27v73h657v-73l-172 -27v-1141zM283 1452l-365 268v37h285l166 -272v-33h-86zM680 1452l-363 268v37h285l164 -272v-33h-86z" />
    <glyph glyph-name="uni0209" unicode="&#x209;" horiz-adv-x="567" 
d="M436 90l103 -24v-66h-494v66l102 24v760l-96 24v66h385v-850zM158 1118l-365 268v37h285l166 -272v-33h-86zM555 1118l-362 268v37h284l164 -272v-33h-86z" />
    <glyph glyph-name="uni020A" unicode="&#x20a;" horiz-adv-x="796" 
d="M555 100l172 -26v-74h-657v74l172 26v1141l-172 27v73h657v-73l-172 -27v-1141zM395 1776v-2q138 0 217 -82q81 -84 84 -242h-100q-15 82 -68 117t-135 35t-129 -33q-50 -35 -71 -119h-101q3 155 82 240q80 86 221 86z" />
    <glyph glyph-name="uni020B" unicode="&#x20b;" horiz-adv-x="567" 
d="M436 90l103 -24v-66h-494v66l102 24v760l-96 24v66h385v-850zM281 1442v-2q138 0 217 -82q81 -84 84 -242h-101q-15 83 -67 117q-53 35 -135 35t-129 -33q-52 -36 -72 -119h-101q3 155 82 240q80 86 222 86z" />
    <glyph glyph-name="uni020C" unicode="&#x20c;" horiz-adv-x="1591" 
d="M432 672v-2q0 -319 86 -455q86 -135 277 -135q188 0 276 137t88 455q0 317 -88 448q-89 133 -276 133q-191 0 -277 -133t-86 -448zM100 670v-4q0 684 697 684q345 0 520 -172q176 -173 176 -510q0 -341 -178 -516t-518 -175q-338 0 -518 177q-179 176 -179 516zM643 1446
l-364 268v37h284l166 -272v-33h-86zM1040 1446l-362 268v37h285l163 -272v-33h-86z" />
    <glyph glyph-name="uni020D" unicode="&#x20d;" horiz-adv-x="1024" 
d="M514 965q224 0 328 -125t104 -365q0 -247 -105 -371t-335 -124q-428 0 -428 495q0 244 104.5 367t331.5 123zM653 475q0 50 -0.5 75t-2 69t-5.5 67.5t-10.5 57t-17 51t-25.5 36t-36 26t-48 7.5q-20 0 -36.5 -5t-29.5 -16.5t-23 -24t-17.5 -33.5t-12.5 -39t-8.5 -47
t-5.5 -50t-3 -56t-1 -57.5v-60.5q0 -54 0.5 -87.5t3.5 -80t8 -75t15 -61t24.5 -50t36 -29.5t49.5 -12q27 0 48 8t36 26.5t25.5 37t17 52.5t10.5 58t5.5 68.5t2 69.5t0.5 75zM373 1118l-365 268v37h285l166 -272v-33h-86zM770 1118l-362 268v37h284l164 -272v-33h-86z" />
    <glyph glyph-name="uni020E" unicode="&#x20e;" horiz-adv-x="1591" 
d="M432 672v-2q0 -319 86 -455q86 -135 277 -135q188 0 276 137t88 455q0 317 -88 448q-89 133 -276 133q-191 0 -277 -133t-86 -448zM100 670v-4q0 684 697 684q345 0 520 -172q176 -173 176 -510q0 -341 -178 -516t-518 -175q-338 0 -518 177q-179 176 -179 516zM801 1769
v-2q139 0 217 -81q81 -84 84 -242h-101q-15 83 -67 117t-135 34t-129 -32q-52 -36 -72 -119h-100q3 154 82 239q80 86 221 86z" />
    <glyph glyph-name="uni020F" unicode="&#x20f;" horiz-adv-x="1024" 
d="M514 965q224 0 328 -125t104 -365q0 -247 -105 -371t-335 -124q-428 0 -428 495q0 244 104.5 367t331.5 123zM653 475q0 50 -0.5 75t-2 69t-5.5 67.5t-10.5 57t-17 51t-25.5 36t-36 26t-48 7.5q-20 0 -36.5 -5t-29.5 -16.5t-23 -24t-17.5 -33.5t-12.5 -39t-8.5 -47
t-5.5 -50t-3 -56t-1 -57.5v-60.5q0 -54 0.5 -87.5t3.5 -80t8 -75t15 -61t24.5 -50t36 -29.5t49.5 -12q27 0 48 8t36 26.5t25.5 37t17 52.5t10.5 58t5.5 68.5t2 69.5t0.5 75zM512 1442v-2q138 0 217 -82q81 -84 84 -242h-100q-15 82 -68 117t-135 35t-129 -33
q-52 -36 -72 -119h-100q3 155 82 240q80 86 221 86z" />
    <glyph glyph-name="uni0210" unicode="&#x210;" horiz-adv-x="1478" 
d="M522 567v-465l172 -26v-74h-647v74l160 26v1141l-172 27v73h641q297 0 442 -92q146 -93 146 -284q0 -288 -271 -371l359 -496l145 -26v-74h-434l-375 567h-166zM952 967l-2 -2q0 151 -61 209q-62 59 -225 59h-142v-553h146q154 0 219 65t65 222zM504 1452l-365 268v37
h285l166 -272v-33h-86zM901 1452l-362 268v37h284l164 -272v-33h-86z" />
    <glyph glyph-name="uni0211" unicode="&#x211;" horiz-adv-x="907" 
d="M461 745l-2 -2q106 118 194 172t158 54h53v-344h-55l-59 127q-64 0 -144 -27q-87 -29 -139 -63v-572l149 -24v-66h-561v66l121 24v760l-121 24v66h396zM322 1116l-365 268v37h285l166 -272v-33h-86zM719 1116l-363 268v37h285l164 -272v-33h-86z" />
    <glyph glyph-name="uni0212" unicode="&#x212;" horiz-adv-x="1478" 
d="M522 567v-465l172 -26v-74h-647v74l160 26v1141l-172 27v73h641q297 0 442 -92q146 -93 146 -284q0 -288 -271 -371l359 -496l145 -26v-74h-434l-375 567h-166zM952 967l-2 -2q0 151 -61 209q-62 59 -225 59h-142v-553h146q154 0 219 65t65 222zM664 1776v-2
q138 0 217 -82q81 -84 84 -242h-101q-15 83 -67 117q-53 35 -135 35q-83 0 -130 -33q-50 -35 -71 -119h-101q3 155 82 240q80 86 222 86z" />
    <glyph glyph-name="uni0213" unicode="&#x213;" horiz-adv-x="907" 
d="M461 745l-2 -2q106 118 194 172t158 54h53v-344h-55l-59 127q-64 0 -144 -27q-87 -29 -139 -63v-572l149 -24v-66h-561v66l121 24v760l-121 24v66h396zM467 1440v-2q138 0 217 -82q81 -84 84 -242h-100q-15 82 -68 117t-135 35t-129 -33q-52 -36 -72 -119h-100
q3 155 82 240q80 86 221 86z" />
    <glyph glyph-name="uni0214" unicode="&#x214;" horiz-adv-x="1478" 
d="M838 123q149 0 233 84q82 82 82 246v788l-178 27v73h455v-73l-152 -27v-780q0 -232 -135 -355q-134 -122 -383 -122q-269 0 -412 125t-143 362v772l-152 27v73h639v-73l-172 -27v-786q0 -162 80 -248t238 -86zM612 1452l-364 268v37h284l166 -272v-33h-86zM1010 1452
l-363 268v37h285l164 -272v-33h-86z" />
    <glyph glyph-name="uni0215" unicode="&#x215;" horiz-adv-x="1138" 
d="M705 82l-72 -37q-141 -72 -252 -72q-260 0 -260 277v598l-94 24v66h383v-649q0 -84 36 -129q38 -47 103 -47q78 0 153 34v703l-86 24v66h375v-850l92 -24v-66h-364zM403 1116l-364 268v37h285l165 -272v-33h-86zM801 1116l-363 268v37h285l164 -272v-33h-86z" />
    <glyph glyph-name="uni0216" unicode="&#x216;" horiz-adv-x="1478" 
d="M838 123q149 0 233 84q82 82 82 246v788l-178 27v73h455v-73l-152 -27v-780q0 -232 -135 -355q-134 -122 -383 -122q-269 0 -412 125t-143 362v772l-152 27v73h639v-73l-172 -27v-786q0 -162 80 -248t238 -86zM834 1776v-2q138 0 217 -82q81 -84 84 -242h-101
q-15 83 -67 117q-53 35 -136 35q-82 0 -129 -33q-50 -35 -71 -119h-101q3 155 82 240q80 86 222 86z" />
    <glyph glyph-name="uni0217" unicode="&#x217;" horiz-adv-x="1138" 
d="M705 82l-72 -37q-141 -72 -252 -72q-260 0 -260 277v598l-94 24v66h383v-649q0 -84 36 -129q38 -47 103 -47q78 0 153 34v703l-86 24v66h375v-850l92 -24v-66h-364zM551 1440v-2q138 0 217 -82q81 -84 84 -242h-100q-15 82 -68 117t-135 35t-129 -33q-52 -36 -72 -119
h-100q3 155 82 240q80 86 221 86z" />
    <glyph glyph-name="Scommaaccent" unicode="&#x218;" horiz-adv-x="1138" 
d="M109 412l84 2l45 -215q41 -46 129 -82q82 -33 176 -33q286 0 286 235q0 73 -55 125q-56 53 -172 93q-182 62 -248 94q-79 39 -129 86q-52 49 -82 117t-30 165q0 177 120 269q121 92 351 92q171 0 374 -43v-320h-90l-45 185q-101 73 -237 73q-127 0 -189 -45
q-65 -47 -65 -141q0 -69 55 -115q56 -47 172 -84q231 -77 315 -131q86 -56 132 -137q45 -80 45 -192q0 -427 -504 -430q-114 0 -234 18q-116 17 -204 53v361zM688 -236l-2 -6q0 -114 -82 -184q-83 -71 -239 -98v67q71 19 112 49q37 27 37 74q0 26 -18 41q-26 22 -39 31
q-14 10 -39 35q-19 19 -19 53q0 47 37 74q39 28 101 28q70 0 110 -43q41 -44 41 -121z" />
    <glyph glyph-name="scommaaccent" unicode="&#x219;" horiz-adv-x="796" 
d="M748 299h-9q0 -157 -96 -238q-94 -79 -281 -79q-69 0 -167 16q-86 14 -140 35v256h66l39 -131q34 -34 92 -58t117 -24q86 0 129 37t43 96q0 53 -41 88q-37 32 -178 76q-143 46 -205 123t-62 190q0 124 97 203q96 78 245 78q89 0 277 -29v-242h-68l-31 111q-30 30 -79 47
q-52 18 -99 18q-70 0 -104 -30q-35 -30 -35 -80q0 -52 43 -86q42 -33 178 -74q147 -48 207 -119q62 -74 62 -184zM530 -238l-2 -6q0 -114 -82 -184q-83 -71 -239 -98v67q71 19 112 49q37 27 37 74q0 26 -18 41q-26 22 -39 31q-14 10 -39 35q-18 18 -18 53q0 47 37 74
q39 28 100 28q70 0 110 -43q41 -44 41 -121z" />
    <glyph glyph-name="uni021A" unicode="&#x21a;" horiz-adv-x="1363" 
d="M309 0l-2 74l213 26v1135h-51q-231 0 -322 -21l-26 -247h-90v374h1302v-374h-92l-27 247q-87 19 -325 19h-49v-1133l213 -26v-74h-744zM842 -238l-2 -6q0 -114 -82 -184q-83 -71 -240 -98v67q73 20 113 49q37 27 37 74q0 25 -19 41q-26 22 -39 31q-14 10 -39 35
q-18 18 -18 53q0 47 37 74q39 28 100 28q71 0 111 -43q41 -44 41 -121z" />
    <glyph glyph-name="uni021B" unicode="&#x21b;" horiz-adv-x="681" 
d="M438 -20v2q-136 0 -209 61t-73 176v619h-123v65l145 39l117 213h149v-213h199v-104h-199v-600q0 -62 29 -99q26 -33 72 -33q42 0 129 17v-86q-29 -20 -105 -39q-73 -18 -131 -18zM563 -236l-2 -6q0 -114 -82 -184q-83 -71 -239 -98v67q71 19 112 49q37 27 37 74
q0 26 -18 41q-26 22 -39 31q-14 10 -39 35q-19 19 -19 53q0 47 37 74q39 28 101 28q70 0 110 -43q41 -44 41 -121z" />
    <glyph glyph-name="uni021C" unicode="&#x21c;" horiz-adv-x="1132" 
d="M211 428l-4 127q252 38 385 147q135 111 135 273q0 150 -74 215t-221 65q-133 0 -233 -59l-43 -195h-88v306q221 51 411 51q300 0 430 -92q129 -92 129 -293q0 -132 -73 -242q-72 -108 -201 -162q312 -91 315 -389q0 -187 -104 -309t-330 -199q-221 -75 -584 -110v100
q371 53 539 172q170 120 170 332q0 133 -51 213q-53 83 -160 110q-146 -39 -348 -61z" />
    <glyph glyph-name="uni021D" unicode="&#x21d;" horiz-adv-x="765" 
d="M180 236l-2 102q132 34 191 115q59 80 59 211q0 110 -33 157q-34 49 -104 49q-62 0 -121 -39l-43 -155h-70v262q68 16 136 23q92 10 151 10q196 0 283 -72q86 -71 86 -227q0 -102 -56 -191q-55 -88 -168 -149q130 -35 197 -105q68 -71 68 -196q0 -217 -166 -328
q-167 -111 -522 -141v82q214 40 309 129q94 88 94 258q0 180 -121 239q-80 -23 -168 -34z" />
    <glyph glyph-name="uni021E" unicode="&#x21e;" horiz-adv-x="1591" 
d="M35 0v74l172 26v1141l-172 27v73h659v-73l-172 -27v-496h547v496l-172 27v73h662v-73l-173 -27v-1141l173 -26v-74h-662v74l172 26v535h-547v-535l172 -26v-74h-659zM1118 1778v-33l-217 -293h-213l-217 293v33h76l248 -162l247 162h76z" />
    <glyph glyph-name="uni021F" unicode="&#x21f;" horiz-adv-x="1138" 
d="M436 1014h2q0 -66 -6 -154l70 35q144 72 254 72q260 0 260 -277v-598l94 -24v-66h-467v66l84 24v559q0 83 -37 129q-38 47 -100 47q-79 0 -154 -34v-703l86 -24v-66h-467v66l92 24v1241l-96 25v65h385v-407zM909 1851v-32l-217 -293h-213l-217 293v32h76l248 -161
l248 161h75z" />
    <glyph glyph-name="uni0220" unicode="&#x220;" horiz-adv-x="1501" 
d="M897 -436l-2 74l172 26v1299q0 252 -229 249q-149 0 -318 -100v-1012l172 -26v-74h-659v74l172 26v1141l-172 27v73h487v-116q128 71 234 98q116 29 227 29q402 0 405 -381v-1307l173 -26v-74h-662z" />
    <glyph glyph-name="uni0221" unicode="&#x221;" horiz-adv-x="1138" 
d="M702 -436l-106 -4q27 149 129 254q-4 36 -4 67v160q-60 -41 -111 -53q-57 -13 -118 -13q-207 0 -310 121q-100 118 -100 369q0 243 108 369q109 127 318 127q108 0 219 -27q-7 39 -4 156v237l-96 25v65h385v-1468l20 2h23q117 0 184 -55q68 -56 68 -152q0 -84 -68 -137
q-66 -51 -184 -51q-201 0 -283 137q-46 -52 -70 -129zM375 471l-2 -2q0 -185 47 -285q46 -98 135 -98q81 0 168 43v709q-73 20 -160 20q-90 0 -139 -98t-49 -289zM1165 -281h-2q0 35 -30 56q-31 22 -105 22h-20q9 -139 90 -139q31 0 49 18t18 43z" />
    <glyph glyph-name="uni0222" unicode="&#x222;" horiz-adv-x="1384" 
d="M737 1384l-2 -14q262 -15 387 -100t125 -242q0 -125 -84 -215t-227 -117q183 -18 281 -106t98 -228q0 -196 -158 -296q-156 -99 -465 -99q-304 0 -463 99t-159 299q0 140 100 227q103 89 283 110q-144 27 -232 109q-86 80 -86 201q0 263 510 293v-103q-114 -18 -166 -67
q-53 -50 -53 -136q0 -125 68 -190q67 -64 196 -64q266 0 266 283q0 110 -51 170q-54 64 -168 84v102zM688 66l2 -3q165 0 248 74q82 73 82 225q0 272 -330 269q-162 0 -246 -66q-82 -64 -82 -203q0 -149 80 -223q79 -73 246 -73z" />
    <glyph glyph-name="uni0223" unicode="&#x223;" horiz-adv-x="1026" 
d="M946 436l-2 -4q0 -457 -440 -457q-212 0 -320 117q-106 115 -106 338q0 326 246 412q-104 35 -158 104q-55 70 -55 176q0 128 88 207q90 81 235 90l41 -65q-88 -70 -88 -215q0 -125 31 -185q29 -57 94 -57q66 0 96 64q31 67 31 180q0 145 -88 215l41 65q150 -9 237 -90
q86 -80 86 -207q0 -102 -55 -172t-162 -104q248 -85 248 -412zM651 438l-2 8q0 187 -33 269q-35 86 -110 86q-73 0 -107 -82q-32 -77 -32 -277q0 -205 32 -282q34 -82 107 -82q75 0 110 90t35 270z" />
    <glyph glyph-name="uni0224" unicode="&#x224;" horiz-adv-x="1363" 
d="M920 -360h-2q124 75 124 190q0 84 -67 127t-197 43h-680v115l742 1120h-240q-228 0 -319 -21l-31 -210h-90v337h1036v-106l-747 -1131h425q211 0 312 -55q102 -55 102 -178q0 -77 -74 -154q-75 -78 -241 -159z" />
    <glyph glyph-name="uni0225" unicode="&#x225;" horiz-adv-x="907" 
d="M549 -379l-2 -8q139 109 139 209q0 80 -65 127t-172 47h-408v45l430 805h-106q-60 0 -107 -8q-51 -9 -74 -25l-30 -156h-72v281h729v-49l-430 -801h143q171 0 262 -55q93 -56 93 -166q0 -75 -70 -148q-67 -70 -215 -161z" />
    <glyph glyph-name="uni0226" unicode="&#x226;" horiz-adv-x="1478" 
d="M428 74v-74h-408v74l101 26l477 1252h289l475 -1252l102 -26v-74h-598v74l156 26l-127 346h-516l-123 -346zM641 1151l-221 -594h436zM588 1602l-4 8q0 64 47 108q46 43 108 43q66 0 111 -45t45 -110t-43 -111q-42 -45 -109 -45q-64 0 -110 43q-45 42 -45 109z" />
    <glyph glyph-name="uni0227" unicode="&#x227;" horiz-adv-x="1024" 
d="M547 961v-5q352 0 352 -260v-610l94 -25v-65h-346l-22 72q-79 -54 -140 -72q-65 -19 -127 -19q-290 0 -290 281q0 108 43 172t122 94t256 33l123 4v137q0 170 -139 170q-82 0 -188 -53l-37 -117h-68v228q167 23 221 28q82 7 146 7zM610 467l-88 -6q-96 -3 -133 -49
t-37 -152q0 -83 31 -125q29 -39 80 -39q66 0 147 35v336zM375 1260l-4 8q0 64 47 108q46 43 108 43q66 0 111 -45t45 -110t-43 -111q-42 -45 -109 -45q-64 0 -110 43q-45 42 -45 109z" />
    <glyph glyph-name="uni0228" unicode="&#x228;" horiz-adv-x="1363" 
d="M35 74l172 24v1141l-172 27v73h1143v-342h-93l-30 217q-114 15 -326 15h-207v-492h350l31 148h90v-412h-90l-31 152h-350v-516h252q253 0 338 16l57 248h93l-21 -375h-526l-13 -53q184 -27 187 -168q0 -95 -74 -148t-186 -53q-87 0 -160 31v90q74 -19 133 -19q92 0 92 86
q0 44 -30 68q-31 25 -101 31l37 137h-565v74z" />
    <glyph glyph-name="uni0229" unicode="&#x229;" horiz-adv-x="907" 
d="M451 -422l2 2q-87 0 -160 31v90q71 -18 135 -18q92 0 92 86q0 42 -31 67t-100 31l33 125q-178 24 -264 141q-86 118 -86 344q0 248 104 367q106 121 318 121q191 0 276 -101q86 -103 86 -315v-82h-494v-16q0 -148 25 -215q24 -63 78 -99q50 -33 147 -33q79 0 224 29v-76
q-47 -30 -131 -51q-85 -21 -173 -24l-6 -35q185 -27 185 -168q0 -94 -72 -148q-71 -53 -188 -53zM485 864h2q-58 0 -88 -65t-30 -228h217q0 140 -8 189q-9 55 -31 80q-21 24 -62 24z" />
    <glyph glyph-name="uni022A" unicode="&#x22a;" horiz-adv-x="1591" 
d="M432 672v-2q0 -319 86 -455q86 -135 277 -135q188 0 276 137t88 455q0 317 -88 448q-89 133 -276 133q-191 0 -277 -133t-86 -448zM100 670v-4q0 684 697 684q345 0 520 -172q176 -173 176 -510q0 -341 -178 -516t-518 -175q-338 0 -518 177q-179 176 -179 516zM487 1679
v140h627v-140h-627zM961 1417q-36 0 -68 29q-31 28 -31 72q0 38 29 67q27 27 67 27q41 0 68 -27q29 -29 29 -67q0 -40 -27 -70q-28 -31 -67 -31zM643 1417l4 -6q-38 0 -69 31t-31 69q0 40 28 68q29 29 68 29q41 0 68 -27q26 -26 26 -68q0 -41 -28 -69q-27 -27 -66 -27z" />
    <glyph glyph-name="uni022B" unicode="&#x22b;" horiz-adv-x="1024" 
d="M514 965q224 0 328 -125t104 -365q0 -247 -105 -371t-335 -124q-428 0 -428 495q0 244 104.5 367t331.5 123zM653 475q0 50 -0.5 75t-2 69t-5.5 67.5t-10.5 57t-17 51t-25.5 36t-36 26t-48 7.5q-20 0 -36.5 -5t-29.5 -16.5t-23 -24t-17.5 -33.5t-12.5 -39t-8.5 -47
t-5.5 -50t-3 -56t-1 -57.5v-60.5q0 -54 0.5 -87.5t3.5 -80t8 -75t15 -61t24.5 -50t36 -29.5t49.5 -12q27 0 48 8t36 26.5t25.5 37t17 52.5t10.5 58t5.5 68.5t2 69.5t0.5 75zM680 1042v2q-46 0 -84 35q-37 34 -37 86q0 50 37 84q38 35 84 35q51 0 84 -33q35 -35 35 -86
q0 -48 -35 -86q-34 -37 -84 -37zM344 1044h-2q-47 0 -84 37t-37 84t37 84t86 37q50 0 84 -37q35 -38 35 -82q0 -48 -35 -86q-34 -37 -84 -37zM195 1382v152h628v-152h-628z" />
    <glyph glyph-name="uni022C" unicode="&#x22c;" horiz-adv-x="1591" 
d="M432 672v-2q0 -319 86 -455q86 -135 277 -135q188 0 276 137t88 455q0 317 -88 448q-89 133 -276 133q-191 0 -277 -133t-86 -448zM100 670v-4q0 684 697 684q345 0 520 -172q176 -173 176 -510q0 -341 -178 -516t-518 -175q-338 0 -518 177q-179 176 -179 516zM487 1681
v140h627v-140h-627zM924 1397l-6 -4q-47 0 -82 14q-30 12 -68 31q-30 15 -57 30t-52 15q-39 0 -61 -19t-31 -69h-94q21 225 197 225q46 0 84 -12q25 -8 67 -29t60 -29q27 -12 55 -12q40 0 61 18q22 19 31 66h94q-21 -225 -198 -225z" />
    <glyph glyph-name="uni022D" unicode="&#x22d;" horiz-adv-x="1024" 
d="M514 965q224 0 328 -125t104 -365q0 -247 -105 -371t-335 -124q-428 0 -428 495q0 244 104.5 367t331.5 123zM653 475q0 50 -0.5 75t-2 69t-5.5 67.5t-10.5 57t-17 51t-25.5 36t-36 26t-48 7.5q-20 0 -36.5 -5t-29.5 -16.5t-23 -24t-17.5 -33.5t-12.5 -39t-8.5 -47
t-5.5 -50t-3 -56t-1 -57.5v-60.5q0 -54 0.5 -87.5t3.5 -80t8 -75t15 -61t24.5 -50t36 -29.5t49.5 -12q27 0 48 8t36 26.5t25.5 37t17 52.5t10.5 58t5.5 68.5t2 69.5t0.5 75zM635 1032v-4q-87 0 -197 88q-57 45 -92 45q-34 0 -47 -22q-14 -25 -23 -92h-104q9 152 66 221
q55 67 151 67q47 0 88 -18q39 -17 111 -68q60 -45 88 -45q19 0 31 6q11 6 18 23q6 15 18 86h105q-9 -151 -62 -219t-151 -68zM197 1386v152h628v-152h-628z" />
    <glyph glyph-name="uni022E" unicode="&#x22e;" horiz-adv-x="1591" 
d="M432 672v-2q0 -319 86 -455q86 -135 277 -135q188 0 276 137t88 455q0 317 -88 448q-89 133 -276 133q-191 0 -277 -133t-86 -448zM100 670v-4q0 684 697 684q345 0 520 -172q176 -173 176 -510q0 -341 -178 -516t-518 -175q-338 0 -518 177q-179 176 -179 516zM651 1595
l-4 9q0 64 47 108q46 43 109 43q65 0 110 -45t45 -111q0 -64 -43 -110q-42 -45 -108 -45q-65 0 -111 43q-45 42 -45 108z" />
    <glyph glyph-name="uni022F" unicode="&#x22f;" horiz-adv-x="1024" 
d="M514 965q224 0 328 -125t104 -365q0 -247 -105 -371t-335 -124q-428 0 -428 495q0 244 104.5 367t331.5 123zM653 475q0 50 -0.5 75t-2 69t-5.5 67.5t-10.5 57t-17 51t-25.5 36t-36 26t-48 7.5q-20 0 -36.5 -5t-29.5 -16.5t-23 -24t-17.5 -33.5t-12.5 -39t-8.5 -47
t-5.5 -50t-3 -56t-1 -57.5v-60.5q0 -54 0.5 -87.5t3.5 -80t8 -75t15 -61t24.5 -50t36 -29.5t49.5 -12q27 0 48 8t36 26.5t25.5 37t17 52.5t10.5 58t5.5 68.5t2 69.5t0.5 75zM358 1268l-4 8q0 64 47 108q46 43 109 43q66 0 111 -45t45 -110t-43 -111q-42 -45 -109 -45
q-65 0 -111 43q-45 42 -45 109z" />
    <glyph glyph-name="uni0230" unicode="&#x230;" horiz-adv-x="1591" 
d="M432 672v-2q0 -319 86 -455q86 -135 277 -135q188 0 276 137t88 455q0 317 -88 448q-89 133 -276 133q-191 0 -277 -133t-86 -448zM100 670v-4q0 684 697 684q345 0 520 -172q176 -173 176 -510q0 -341 -178 -516t-518 -175q-338 0 -518 177q-179 176 -179 516zM487 1700
v139h627v-139h-627zM666 1524h-4q0 57 40 94t97 37q58 0 98 -37q39 -36 39 -92q0 -52 -37 -92q-36 -39 -96 -39q-58 0 -98 37q-39 36 -39 92z" />
    <glyph glyph-name="uni0231" unicode="&#x231;" horiz-adv-x="1024" 
d="M514 965q224 0 328 -125t104 -365q0 -247 -105 -371t-335 -124q-428 0 -428 495q0 244 104.5 367t331.5 123zM653 475q0 50 -0.5 75t-2 69t-5.5 67.5t-10.5 57t-17 51t-25.5 36t-36 26t-48 7.5q-20 0 -36.5 -5t-29.5 -16.5t-23 -24t-17.5 -33.5t-12.5 -39t-8.5 -47
t-5.5 -50t-3 -56t-1 -57.5v-60.5q0 -54 0.5 -87.5t3.5 -80t8 -75t15 -61t24.5 -50t36 -29.5t49.5 -12q27 0 48 8t36 26.5t25.5 37t17 52.5t10.5 58t5.5 68.5t2 69.5t0.5 75zM358 1208l-4 9q0 64 47 108q46 43 109 43q66 0 111 -45t45 -111q0 -64 -43 -110q-42 -45 -109 -45
q-65 0 -111 43q-45 42 -45 108zM193 1458v152h628v-152h-628z" />
    <glyph glyph-name="uni0232" unicode="&#x232;" horiz-adv-x="1478" 
d="M911 528v-428l213 -26v-74h-741v74l213 26v422l-410 719l-149 27v73h688v-73l-178 -27l305 -561l297 561l-166 27v73h457v-73l-142 -27zM467 1454v152h629v-152h-629z" />
    <glyph glyph-name="uni0233" unicode="&#x233;" horiz-adv-x="1024" 
d="M463 -29l-375 877l-65 24v66h481v-66l-113 -26l221 -520l197 522l-111 24v66h308v-66l-68 -20l-371 -913q-66 -168 -112 -236q-50 -75 -107 -111q-56 -36 -135 -36q-83 0 -166 18v244h62l43 -127q30 -23 73 -23q39 0 68 19q30 20 53 53q27 39 49 84q36 75 68 147z
M225 1118v152h629v-152h-629z" />
    <glyph glyph-name="uni0234" unicode="&#x234;" horiz-adv-x="567" 
d="M430 -76l-4 2q50 4 74 4q128 0 196 -51q70 -52 70 -141q0 -80 -72 -131q-70 -49 -184 -49q-201 0 -303 153q-81 -66 -105 -147h-94q27 156 154 256q-18 67 -21 151v1360l-96 25v65h385v-1497zM629 -270l-2 2q0 35 -33 55q-38 23 -100 23l-66 -5q18 -138 117 -141
q39 0 61 19q23 20 23 47z" />
    <glyph glyph-name="uni0235" unicode="&#x235;" horiz-adv-x="1138" 
d="M1014 -76v4q50 4 73 4q129 0 195 -51q68 -53 68 -141q0 -80 -72 -131q-70 -49 -184 -49q-202 0 -301 153q-80 -65 -107 -147h-92q27 156 151 256q-18 67 -18 151v678q0 83 -37 129q-38 47 -100 47q-79 0 -154 -34v-703l86 -24v-66h-467v66l92 24v760l-92 24v66h365
l14 -82l68 35q141 72 252 72q260 0 260 -277v-764zM1214 -268l-4 2q0 34 -30 55q-33 23 -99 23l-65 -5q18 -138 114 -141q40 0 62 19t22 47z" />
    <glyph glyph-name="uni0236" unicode="&#x236;" horiz-adv-x="737" 
d="M444 348h-4q50 4 74 4q129 0 195 -51q67 -52 67 -141q0 -83 -69 -131q-70 -49 -187 -49q-202 0 -301 153q-80 -62 -104 -145h-95q27 154 154 254q-18 64 -18 153v441h-123v65l145 39l117 213h149v-213h199v-104h-199v-488zM641 152h-4q0 33 -31 55t-98 22l-66 -4
q18 -139 115 -139q40 0 61 18q23 20 23 48z" />
    <glyph glyph-name="j.dotless" unicode="&#x237;" horiz-adv-x="681" 
d="M545 -39l2 -2q0 -189 -101 -293t-288 -104q-90 0 -172 18v225h63l43 -114q25 -19 49 -19q54 0 84 68q31 70 31 188v912l-166 34v66h455v-979z" />
    <glyph glyph-name="uni0238" unicode="&#x238;" horiz-adv-x="1683" 
d="M696 1333l-102 25v65h385v-346q0 -83 -10 -188q40 34 114 55q80 23 146 23q207 0 301 -111q94 -110 94 -356q0 -242 -121 -381q-119 -137 -338 -137q-171 0 -473 67q-54 -40 -108 -55q-49 -14 -121 -14q-207 0 -309 120q-101 119 -101 369q0 243 111 369q112 127 317 127
q107 0 221 -27q-6 35 -6 156v239zM1331 500h-4q0 187 -45 270q-47 86 -147 86q-45 0 -86 -8q-47 -9 -74 -27v-719q65 -15 160 -12q97 0 147 96q49 94 49 314zM338 477l-2 -2q0 -185 47 -285q46 -98 135 -98q81 0 166 43v709q-73 20 -158 20q-90 0 -139 -98t-49 -289z" />
    <glyph glyph-name="uni0239" unicode="&#x239;" horiz-adv-x="1683" 
d="M1128 -436h-567v65l137 25v215q0 72 11 188q-100 -77 -244 -77q-208 0 -309 122t-101 369q0 244 113 369t334 125q51 0 276 -23l119 43h90v-88q106 68 252 68q198 0 293 -115q96 -116 96 -363q0 -245 -110 -376t-320 -131q-111 0 -215 26q6 -64 6 -147v-205l139 -25v-65z
M346 449l-2 -3q0 -181 47 -270q46 -88 154 -88q39 0 82 12q37 10 71 29v717q-72 16 -151 16q-103 0 -152 -100q-49 -101 -49 -313zM1331 477h-2q0 375 -174 375q-95 0 -172 -39v-709q79 -20 172 -20q176 0 176 393z" />
    <glyph glyph-name="uni023A" unicode="&#x23a;" horiz-adv-x="1478" 
d="M1004 1047l358 -947l102 -26v-74h-598v74l156 26l-127 346h-281l-237 -364l51 -8v-74h-104l-68 -104h-139l67 104h-164v74l101 26l477 1252h289l65 -170l140 213h139zM420 557h127l198 305l-104 289zM795 725l-111 -168h172zM379 446l-105 -296l-8 -19l2 -4l4 8l203 311
h-96z" />
    <glyph glyph-name="uni023B" unicode="&#x23b;" horiz-adv-x="1478" 
d="M1149 1323l-6 -2q67 -13 147 -37l6 -321h-90l-26 194q-44 29 -93 49l-505 -1028q107 -101 284 -98q112 0 197 31q83 30 133 71l33 219h90l-6 -340q-90 -35 -234 -59q-150 -25 -266 -25q-165 0 -307 48l-76 -152h-131l98 201q-144 82 -221 231q-78 150 -78 350
q0 345 181 523t534 178q92 0 209 -13l68 140h137zM426 655h-2q0 -226 74 -368l467 954q-41 8 -95 8q-229 0 -338 -145q-106 -141 -106 -449z" />
    <glyph glyph-name="uni023C" unicode="&#x23c;" horiz-adv-x="1024" 
d="M928 262l-2 -2q-41 -33 -113 -51q-77 -20 -143 -25v-186h-92v186q-489 18 -492 492q0 152 59 264q59 111 170 170q112 59 260 59h3v172h92v-176q126 -9 235 -30v-279h-71l-54 166q-52 34 -110 43v-756q143 0 258 31v-78zM379 680v-4q0 -166 47 -252q48 -89 147 -109v744
q-91 -18 -143 -119q-51 -99 -51 -260z" />
    <glyph glyph-name="uni023D" unicode="&#x23d;" horiz-adv-x="1363" 
d="M729 1268l-207 -27v-473h363v-123h-363v-539h273q211 0 313 21l82 279h90l-39 -406h-1206v74l172 26v545h-125v123h125v473l-170 27v73h692v-73z" />
    <glyph glyph-name="uni023E" unicode="&#x23e;" horiz-adv-x="1363" 
d="M307 0l-41 -63h-139l395 608v690h-51q-229 0 -321 -21l-27 -247h-90v374h1007l62 95h137l-59 -95h155v-374h-92l-26 247q-57 10 -111 13l-266 -410v-717l213 -26v-74h-746zM522 100v232l-164 -252zM840 1233v-203l129 203h-39h-90z" />
    <glyph glyph-name="uni023F" unicode="&#x23f;" horiz-adv-x="796" 
d="M748 299l-13 2q0 -153 -94 -235q-95 -83 -272 -86q24 -37 61 -119q37 -83 51 -101q17 -23 37 -36t47 -13q35 0 56 21q20 20 26 45h66v-209q-30 -10 -88 -10q-108 0 -181 61q-74 61 -147 231q-35 75 -64 111q-31 38 -63 41q-30 6 -59 14q-17 5 -35 10.5t-21 6.5v256h66
l39 -131q34 -34 92 -58t117 -24q86 0 129 37t43 96q0 53 -41 88q-37 32 -178 76q-143 46 -205 123t-62 190q0 124 97 203q96 78 245 78q89 0 277 -29v-242h-68l-31 111q-30 30 -79 47q-52 18 -99 18q-70 0 -104 -30q-35 -30 -35 -80q0 -52 43 -86q42 -33 178 -74
q147 -48 207 -119q62 -74 62 -184z" />
    <glyph glyph-name="uni0240" unicode="&#x240;" horiz-adv-x="907" 
d="M41 0l-2 39l430 805h-107q-59 0 -106 -8q-51 -9 -74 -25l-30 -156h-72v281h729v-49l-440 -817q50 -20 92 -74q38 -50 74 -135q34 -81 65 -117q30 -35 72 -35q39 0 57 21q19 23 25 45h65v-209q-17 -10 -74 -10q-73 0 -131 22q-50 19 -94 66q-38 41 -86 135l-39 82
q-37 70 -80 104q-44 35 -102 35h-172z" />
    <glyph glyph-name="uni0241" unicode="&#x241;" horiz-adv-x="1089" 
d="M154 1370h2q179 72 387 72q235 0 360 -113q127 -115 127 -325q0 -173 -86 -291q-84 -115 -262 -162v-451l172 -26v-74h-659v74l172 26v502l114 14q134 15 197 111q61 94 61 277q0 335 -221 335q-140 0 -246 -75l-28 -152h-90v258z" />
    <glyph glyph-name="uni0242" unicode="&#x242;" horiz-adv-x="952" 
d="M190 0l3 61l102 25v289l82 14q105 17 153 78q48 60 48 184q0 104 -52 156q-51 51 -159 51q-65 0 -117 -12q-53 -12 -80 -33l-39 -164h-70v271q168 43 357 43q216 0 332 -82t116 -228q0 -116 -69 -182q-70 -67 -215 -102v-279l102 -24v-66h-494z" />
    <glyph glyph-name="uni0243" unicode="&#x243;" horiz-adv-x="1363" 
d="M35 0l-4 68l172 26v199h-176v123h176v819l-172 27v73h649q265 0 395 -71q129 -70 129 -232q0 -121 -74 -207q-73 -85 -200 -112q187 -18 282 -101q97 -85 97 -223q0 -193 -144 -295q-141 -100 -413 -100l-455 6h-262zM518 293l2 -189q144 -6 228 -6q115 0 172 72
q55 70 55 215q0 132 -68 197t-217 65h-172v-231h273v-123h-273zM877 1004h-3q0 119 -51 170q-53 53 -166 53h-139v-467h148q107 0 159 55t52 189z" />
    <glyph glyph-name="uni0244" unicode="&#x244;" horiz-adv-x="1478" 
d="M1276 645v-186q0 -232 -135 -355q-134 -122 -383 -122q-270 0 -412 124q-143 125 -143 363v176h-152v123h152v473l-152 27v73h639v-73l-172 -27v-473h633v473l-178 27v73h454v-73l-151 -27v-473h151v-123h-151zM838 121v2q149 0 233 84q82 82 82 246v192h-633v-190
q0 -162 80 -248t238 -86z" />
    <glyph glyph-name="uni0245" unicode="&#x245;" horiz-adv-x="1466" 
d="M420 74v-74h-408v74l99 26l477 1252h291l475 -1252l102 -26v-74h-598v74l156 16l-377 1049l-381 -1039z" />
    <glyph glyph-name="uni0246" unicode="&#x246;" horiz-adv-x="1363" 
d="M393 0l-57 -125h-131l57 125h-227v74l172 26v1141l-172 27v73h858l65 142h138l-68 -142h150v-342h-93l-30 218l-80 8l-232 -486h129l31 148h90v-412h-90l-31 152h-182l-168 -357v-159h252q253 0 338 16l57 248h93l-21 -375h-848zM522 739h86l232 492h-64h-254v-492z
M522 553l35 74h-35v-74z" />
    <glyph glyph-name="uni0247" unicode="&#x247;" horiz-adv-x="907" 
d="M494 963l2 -2q1 0 79 -5l117 336h107l-125 -360q184 -76 184 -387v-82h-348l-96 -277q58 -82 202 -82q79 0 224 29v-76q-54 -34 -144 -55q-84 -20 -172 -20q-101 0 -174 20l-121 -348h-104l133 387q-186 107 -186 434q0 248 104 367q106 121 318 121zM485 860v-2
q-58 0 -88 -65t-30 -228h73l97 277q-21 18 -52 18zM365 395l2 -45l36 109h-38v-64zM584 563l-2 103l-35 -103h37z" />
    <glyph glyph-name="uni0248" unicode="&#x248;" horiz-adv-x="1024" 
d="M969 649l-156 -8v-217q0 -218 -119 -334q-120 -117 -340 -117q-59 0 -149 11q-67 8 -117 22v303h90l31 -178q20 -24 53 -35q34 -12 78 -12q71 0 117 49q45 48 45 143v373h-172v123h172v469l-172 27v73h639v-73l-154 -27v-469h154v-123z" />
    <glyph glyph-name="uni0249" unicode="&#x249;" horiz-adv-x="681" 
d="M545 432l2 -473q0 -189 -101 -293t-288 -104q-90 0 -172 18v225h63l43 -114q25 -19 49 -19q54 0 84 68q31 70 31 188v504h-111v105h111v303l-166 34v66h455v-403h108v-105h-108zM555 1266l-4 4q0 -65 -43 -111q-42 -45 -109 -45q-64 0 -110 43q-45 42 -45 109
q0 65 45 110t110 45q66 0 111 -45t45 -110z" />
    <glyph glyph-name="uni024A" unicode="&#x24a;" horiz-adv-x="1687" 
d="M852 1245h2q-230 0 -338 -141t-108 -442q0 -278 104 -424q106 -148 317 -148q71 0 152 19q77 18 123 45v1042q-113 49 -252 49zM1784 -147v-263q-98 -31 -252 -28q-115 0 -221 59q-104 58 -156 156q-51 96 -51 223v35q-47 -17 -119 -31q-85 -16 -188 -16q-214 0 -379 80
q-163 79 -252 233q-88 152 -88 361q0 342 196 520t570 178q113 0 184 -12q22 -4 59 -10.5t50 -8.5l221 17h57v-1485q0 -194 139 -197q36 0 66 12q32 13 47 37l37 140h80z" />
    <glyph glyph-name="uni024B" unicode="&#x24b;" horiz-adv-x="1138" 
d="M340 459l-2 2q0 -183 49 -277t145 -94q72 0 154 43v709q-79 20 -156 20q-92 0 -141 -102q-49 -101 -49 -301zM1249 -416l2 2q-95 -18 -172 -18q-180 0 -288 102q-107 101 -107 281q0 55 8 104q-106 -71 -266 -71q-187 0 -285 125t-98 362q0 230 121 363t332 133
q65 0 206 -27l50 -10l118 57h107v-1081q0 -118 24 -174t91 -56q30 0 51 21l43 113h63v-226z" />
    <glyph glyph-name="uni024C" unicode="&#x24c;" horiz-adv-x="1478" 
d="M522 567v-465l172 -26v-74h-647v74l160 26v467h-166v111h166v563l-172 27v73h641q297 0 442 -92q146 -93 146 -284q0 -288 -271 -371l359 -496l145 -26v-74h-434l-375 567h-166zM952 967l-2 -2q0 151 -61 209q-62 59 -225 59h-142v-553h146q154 0 219 65t65 222z" />
    <glyph glyph-name="uni024D" unicode="&#x24d;" horiz-adv-x="907" 
d="M467 418l-2 -330l149 -25v-65h-561v65l121 25v328h-121v104h121v328l-121 24v66h396l10 -195q106 118 194 172t158 54h53v-344h-55l-59 127q-64 0 -144 -27q-87 -29 -139 -63v-140h131v-104h-131z" />
    <glyph glyph-name="uni024E" unicode="&#x24e;" horiz-adv-x="1478" 
d="M1440 961h-293l-236 -433v-428l213 -26v-74h-741v74l213 26v422l-250 439h-309v122h239l-90 158l-149 27v73h688v-73l-178 -27l86 -158h432l84 158l-166 27v73h457v-73l-142 -27l-86 -158h228v-122zM852 680l147 281h-301z" />
    <glyph glyph-name="uni024F" unicode="&#x24f;" horiz-adv-x="1024" 
d="M1004 539l-193 -2l-242 -598q-66 -168 -112 -236q-50 -75 -107 -111q-56 -36 -135 -36q-83 0 -166 18v244h62l43 -127q30 -23 73 -23q39 0 68 19q30 20 53 53q29 42 47 84l68 147l-244 568h-199v102h154l-88 209l-66 24v66h482v-66l-113 -26l86 -207h252l80 209l-111 24
v66h308v-66l-68 -20l-86 -213h154v-102zM614 326l78 211h-168z" />
    <glyph glyph-name="uni0250" unicode="&#x250;" horiz-adv-x="1024" 
d="M477 -20v4q-352 0 -352 260v612l-94 23v65h346l22 -72q79 54 140 72q65 19 127 19q144 0 217 -70t73 -209q0 -108 -43 -172t-125 -94q-88 -32 -253 -35l-123 -2v-137q0 -170 139 -170q86 0 188 51l37 117h68v-228q-167 -23 -221 -28q-71 -6 -146 -6zM414 473h84
q93 3 133 49q41 47 41 158q0 83 -31 125q-29 39 -80 39q-66 0 -147 -35v-336z" />
    <glyph glyph-name="uni0251" unicode="&#x251;" horiz-adv-x="1175" 
d="M1130 66v-68h-387l-18 92q-113 -113 -295 -113q-348 0 -348 474q0 244 104 378q106 136 287 136q179 0 252 -107v82h291v-850zM725 494l-2 -2q0 168 -47 264t-129 96q-86 0 -129 -107t-43 -301q0 -164 37 -251q38 -89 120 -89q84 0 193 95v295z" />
    <glyph glyph-name="uni0252" unicode="&#x252;" horiz-adv-x="1175" 
d="M45 874l2 66h387l19 -92q113 113 295 113q348 0 348 -474q0 -241 -105 -376q-106 -136 -289 -136q-178 0 -251 107v-82h-289v850zM453 444l-4 -2q0 -170 49 -264t133 -94q86 0 129 106q43 107 43 302q0 342 -158 342q-89 0 -192 -95v-295z" />
    <glyph glyph-name="uni0253" unicode="&#x253;" horiz-adv-x="1138" 
d="M668 1198l-70 -2l-29 111q-25 25 -61 22q-100 0 -100 -233q0 -94 -11 -209q39 33 115 55q80 23 145 23q206 0 301 -111q95 -112 95 -356q0 -242 -121 -381q-119 -137 -338 -137q-165 0 -473 67v997q0 194 98 295q100 103 283 103q95 0 166 -19v-225zM760 496h-4
q0 187 -45 270q-47 86 -150 86q-43 0 -82 -8q-44 -9 -71 -27v-719q64 -15 155 -12q98 0 148 96q49 94 49 314z" />
    <glyph glyph-name="uni0254" unicode="&#x254;" horiz-adv-x="907" 
d="M51 889l-4 -2q46 37 125 55q84 19 164 19q251 0 375 -121q123 -120 123 -369q0 -156 -58 -266t-162 -168q-102 -57 -243 -57t-305 34v279h71l43 -166q29 -20 66 -33q34 -12 90 -12q58 0 108 47q48 45 76 133q27 85 27 207q0 201 -62 287t-198 86q-134 0 -236 -31v78z" />
    <glyph glyph-name="uni0255" unicode="&#x255;" horiz-adv-x="907" 
d="M360 397l2 -2q96 51 201 51q132 0 207 -63q78 -66 78 -166q0 -113 -86 -178q-85 -64 -240 -64q-178 0 -295 97q-33 -65 -55 -160h-102q18 137 77 252q-73 116 -73 303q0 156 55 266q56 112 160 170q108 60 243 60q137 0 306 -35v-279h-72l-43 166q-40 28 -68 35
q-38 10 -86 10q-56 0 -106 -47q-49 -46 -76 -131q-27 -86 -27 -205v-80zM727 201l-2 2q0 44 -43 71q-47 29 -125 29q-96 0 -170 -45q49 -143 195 -143q70 0 108 24q37 24 37 62z" />
    <glyph glyph-name="uni0256" unicode="&#x256;" horiz-adv-x="1138" 
d="M377 475l-2 -2q0 -185 47 -285q46 -98 135 -98q81 0 168 43v709q-73 20 -160 20q-90 0 -139 -98t-49 -289zM1268 -201v-229q-68 -19 -166 -19q-183 0 -283 103q-98 101 -98 295v92q-63 -42 -113 -53q-57 -13 -116 -13q-207 0 -310 121q-100 118 -100 369q0 243 108 369
q109 127 318 127q108 0 219 -27q-7 39 -4 156v237l-96 25v65h385v-1499q0 -255 98 -252q39 0 64 25l28 108h66z" />
    <glyph glyph-name="uni0257" unicode="&#x257;" horiz-adv-x="1138" 
d="M1270 1198h-72l-29 111q-25 25 -63 22q-101 0 -98 -254v-987l102 -24v-66h-362l-21 53q-53 -36 -86 -49q-30 -12 -68 -18q-37 -6 -81 -6q-208 0 -310 120q-100 118 -100 369q0 243 108 369q109 127 318 127q108 0 219 -27q-7 48 -4 106q0 194 98 295q100 103 283 103
q95 0 166 -19v-225zM371 475l-2 -2q0 -185 47 -285q46 -98 135 -98q81 0 168 43v709q-73 20 -160 20q-90 0 -139 -98t-49 -289z" />
    <glyph glyph-name="uni0258" unicode="&#x258;" horiz-adv-x="907" 
d="M416 963l4 -2q211 0 317 -121q105 -120 105 -367q0 -255 -111 -375q-109 -118 -342 -118q-79 0 -172 22q-88 21 -143 55v76q142 -29 221 -29q94 0 147 35q54 36 78 99q25 67 25 211v16h-494v82q0 210 86 313t279 103zM430 860h2q-41 0 -61 -26q-22 -29 -31 -82
q-8 -49 -8 -185h217q0 159 -29 228q-27 65 -90 65z" />
    <glyph glyph-name="uni0259" unicode="&#x259;" horiz-adv-x="907" 
d="M416 -18l2 -7q-191 0 -277 103t-86 317v82h494v17q0 149 -25 213q-24 61 -80 96t-147 35q-78 0 -223 -29v76q54 34 141 55q94 23 170 23q232 0 342 -119q111 -120 111 -375q0 -247 -105 -367t-317 -120zM428 76l-4 2q60 0 90 65q31 67 31 228h-217q0 -138 8 -187
q9 -53 31 -82q20 -26 61 -26z" />
    <glyph glyph-name="uni025A" unicode="&#x25a;" horiz-adv-x="1282" 
d="M1079 412h-8q-103 0 -158 67t-55 191l-27 -15q19 -87 19 -190q0 -247 -105 -367q-106 -121 -317 -121q-182 0 -268 95t-92 295l485 256q-12 107 -72 161q-58 52 -172 52q-78 0 -223 -29v76q55 34 143 55q97 23 172 23q297 0 400 -207q41 21 57 37q10 9 27 34l94 -14v-61
q0 -201 113 -201q86 0 141 108l49 -49q-9 -85 -65 -141q-55 -55 -138 -55zM555 512l-225 -113q0 -137 10 -202q9 -58 31 -86q21 -27 61 -27q62 0 92 68q31 70 31 225v135z" />
    <glyph glyph-name="uni025B" unicode="&#x25b;" horiz-adv-x="874" 
d="M492 -20l-3 -5q-200 0 -315 74q-113 73 -113 213q0 96 56 158q55 61 153 82v6q-184 61 -184 217q0 115 111 176q112 62 323 62q173 0 295 -35v-238h-72l-34 127q-57 45 -164 45q-86 0 -131 -39t-45 -112q0 -57 30 -101q29 -42 82 -57q120 12 183 12h49v-129h-49
q-34 0 -193 15q-115 -41 -115 -172q0 -86 58 -132q57 -45 168 -45q81 0 151 17q56 14 111 37v-80q-57 -43 -150 -70q-88 -26 -202 -26z" />
    <glyph glyph-name="uni025C" unicode="&#x25c;" horiz-adv-x="874" 
d="M383 -20v-3q-111 0 -203 27q-93 27 -147 70v80q68 -25 110 -35q70 -17 152 -17q111 0 168 45t57 132q0 131 -114 172q-163 -15 -193 -15h-47v129h47q64 0 184 -12q51 16 80 57q31 45 31 101q0 73 -45 112t-131 39q-103 0 -160 -45l-37 -127h-72v238q121 38 295 35
q212 0 324 -62q111 -62 111 -174q0 -155 -185 -217v-6q98 -22 152 -82q55 -61 55 -156q0 -140 -113 -213t-319 -73z" />
    <glyph glyph-name="uni025D" unicode="&#x25d;" horiz-adv-x="1212" 
d="M1010 412l-6 2q-103 0 -158 67t-55 191l-13 -8q-30 -101 -176 -154v-6q98 -22 152 -82q55 -61 55 -156q0 -140 -113 -213t-319 -73q-115 0 -203 26q-93 27 -147 70v80q68 -25 110 -35q70 -17 152 -17q110 0 168 46q57 45 57 131q0 131 -115 172q-164 -15 -192 -15h-47
v129h47q64 0 184 -12q51 16 80 57q31 45 31 101q0 73 -45 112t-131 39q-103 0 -160 -45l-37 -127h-72v238q121 38 295 35q187 0 299 -50t133 -141l17 25l14 26l92 -14v-61q0 -201 115 -201q86 0 139 108l51 -49q-9 -85 -65 -141q-55 -55 -137 -55z" />
    </font>
</defs>
</svg>
